<?xml version="1.0" standalone="no"?>
<!DOCTYPE svg PUBLIC "-//W3C//DTD SVG 1.1//EN" "http://www.w3.org/Graphics/SVG/1.1/DTD/svg11.dtd" >
<svg xmlns="http://www.w3.org/2000/svg" xmlns:xlink="http://www.w3.org/1999/xlink" version="1.1">
<metadata>
Created by FontForge 20170731 at Fri Aug 27 17:58:36 2021
 By Aleksey,,,
Copyright (c) 1993, 1994, 2001 Adobe Systems Incorporated.  All Rights Reserved.
</metadata>
<defs>
<font id="ITCAvantGardeStd-Bold" horiz-adv-x="1136" >
  <font-face 
    font-family="ITC Avant Garde Std Md"
    font-weight="700"
    font-stretch="normal"
    units-per-em="2048"
    panose-1="2 11 8 2 2 2 2 2 2 4"
    ascent="1638"
    descent="-410"
    x-height="1137"
    cap-height="1516"
    bbox="-242 -555 2503 2083"
    underline-thickness="102"
    underline-position="-307"
    unicode-range="U+0020-FB02"
  />
<missing-glyph horiz-adv-x="1024" 
d="M0 0v1434h1024v-1434h-1024zM512 809l348 522h-696zM573 717l349 -522v1044zM164 102h696l-348 523zM102 1239v-1044l349 522z" />
    <glyph glyph-name="fi" unicode="fi" horiz-adv-x="1230" 
d="M768 879h-293v-879h-340v879h-127v258h127v49q0 69 14.5 123.5t38.5 91.5t62 64t76.5 42t91.5 23.5t97 11t103 2.5v-256q-22 0 -33 -0.5t-31.5 -3t-31.5 -9.5t-23.5 -18.5t-18 -31t-5.5 -45.5v-43h633v-1137h-340v879zM1108 1257h-340v259h340v-259z" />
    <glyph glyph-name="fl" unicode="fl" horiz-adv-x="1230" 
d="M768 879h-293v-879h-340v879h-127v258h127v49q0 69 14.5 123.5t38.5 91.5t62 64t76.5 42t91.5 23.5t97 11t103 2.5v-256q-22 0 -33 -0.5t-31.5 -3t-31.5 -9.5t-23.5 -18.5t-18 -31t-5.5 -45.5v-43h293v376h340v-1513h-340v879z" />
    <glyph glyph-name=".notdef" horiz-adv-x="1024" 
d="M0 0v1434h1024v-1434h-1024zM512 809l348 522h-696zM573 717l349 -522v1044zM164 102h696l-348 523zM102 1239v-1044l349 522z" />
    <glyph glyph-name=".null" horiz-adv-x="0" 
 />
    <glyph glyph-name="nonmarkingreturn" horiz-adv-x="682" 
 />
    <glyph glyph-name="space" unicode=" " horiz-adv-x="632" 
 />
    <glyph glyph-name="exclam" unicode="!" horiz-adv-x="681" 
d="M516 1516v-1016h-350v1016h350zM516 348v-348h-350v348h350z" />
    <glyph glyph-name="quotedbl" unicode="&#x22;" horiz-adv-x="948" 
d="M408 909h-254v607h254v-607zM795 909h-254v607h254v-607z" />
    <glyph glyph-name="numbersign" unicode="#" horiz-adv-x="1265" 
d="M889 473l-49 -356h-232l49 356h-159l-49 -356h-234l49 356h-203l31 227h205l20 150h-204l30 227h205l45 324h234l-45 -324h159l45 324h234l-45 -324h227l-31 -227h-229l-20 -150h227l-31 -227h-229zM690 700l21 150h-160l-21 -150h160z" />
    <glyph glyph-name="dollar" unicode="$" horiz-adv-x="1265" 
d="M780 1661v-207q129 -31 208.5 -132.5t76.5 -256.5h-317q0 50 -28.5 89.5t-84.5 39.5q-50 0 -80.5 -34t-30.5 -81q0 -22 7 -41t15.5 -33.5t31 -30.5t38 -26t53 -26t59.5 -25t73 -29q73 -27 128.5 -67.5t87.5 -81.5t52 -88t26.5 -83.5t6.5 -72.5q0 -136 -82 -251t-240 -173
v-207h-276v207q-85 13 -152.5 55t-107 101t-60 123.5t-20.5 128.5h350q0 -61 33.5 -103.5t87.5 -42.5q51 0 84 36.5t33 84.5q0 29 -11 54t-35 46.5t-47 37.5t-62.5 33.5t-64.5 27.5t-69 26q-287 96 -287 381q0 90 28.5 164t77.5 122.5t104 79.5t118 48v207h276z" />
    <glyph glyph-name="percent" unicode="%" horiz-adv-x="1757" 
d="M74 1176v2q0 152 108 260t260 108q154 0 261.5 -108t107.5 -262q0 -153 -108 -261t-261 -108q-151 0 -259.5 108t-108.5 261zM301 1176v-2q0 -56 41.5 -98t99.5 -42q57 0 99.5 42t42.5 102t-41.5 100.5t-100.5 40.5t-100 -41t-41 -102zM944 340v2q0 152 108.5 260.5
t262.5 108.5q152 0 260 -108.5t108 -262.5t-109 -262.5t-259 -108.5q-152 0 -261.5 108t-109.5 263zM1171 340v-2q0 -57 42 -99t102 -42q57 0 99 41.5t42 101.5q0 61 -41.5 102t-99.5 41q-61 0 -102.5 -42t-41.5 -101zM1307 1516l-629 -1516h-236l627 1516h238z" />
    <glyph glyph-name="ampersand" unicode="&#x26;" horiz-adv-x="1552" 
d="M1126 891h359l-246 -461l229 -233l-231 -228l-184 191q-17 -30 -47 -59.5t-78 -61t-122 -51t-161 -19.5q-248 0 -396.5 126t-148.5 315q0 54 12 102.5t37.5 89.5t49 71t62.5 62.5t60 48t60 41.5q-143 147 -143 328q0 165 122 278t297 113q172 0 285 -108.5t113 -264.5
q0 -57 -16.5 -109t-37 -85.5t-54.5 -68.5t-53 -49.5t-48 -35.5l168 -170zM659 1270h-2q-36 0 -63 -26.5t-27 -74.5q0 -33 16 -67t30.5 -52t39.5 -44q31 31 46.5 48.5t32 51.5t16.5 68q0 41 -24 68.5t-65 27.5zM829 379l-239 242q-35 -28 -54.5 -46t-41 -55t-21.5 -76
q0 -70 52 -109.5t130 -39.5q116 0 174 84z" />
    <glyph glyph-name="quotesingle" unicode="'" horiz-adv-x="495" 
d="M375 909h-254v607h254v-607z" />
    <glyph glyph-name="parenleft" unicode="(" horiz-adv-x="968" 
d="M881 1544v-375q-66 -28 -130.5 -85.5t-121.5 -140t-92 -198.5t-35 -245q0 -122 33 -234t88 -195.5t121 -143.5t137 -91v-377q-155 50 -282.5 138t-212.5 193.5t-143 229.5t-84 244.5t-26 239.5q0 118 25.5 238t83.5 243.5t143 228.5t212.5 193t283.5 137z" />
    <glyph glyph-name="parenright" unicode=")" horiz-adv-x="968" 
d="M88 -541v375q66 28 130.5 85.5t121.5 140t92 199t35 245.5q0 122 -33 234t-88 195t-121 143t-137 91v377q155 -50 282.5 -138t212.5 -193.5t143 -229t84 -244t26 -239.5q0 -118 -25.5 -238t-83.5 -244t-143 -229t-212.5 -193t-283.5 -137z" />
    <glyph glyph-name="asterisk" unicode="*" horiz-adv-x="1372" 
d="M797 1516l-66 -314l242 211l106 -192l-295 -95l295 -94l-114 -201l-238 218l70 -312h-222l66 316l-233 -222l-115 201l295 98l-295 91l106 192l246 -209l-70 312h222z" />
    <glyph glyph-name="plus" unicode="+" horiz-adv-x="1228" 
d="M778 1036v-354h352v-328h-352v-354h-327v354h-353v328h353v354h327z" />
    <glyph glyph-name="comma" unicode="," horiz-adv-x="643" 
d="M498 348l-205 -512h-281l131 512h355z" />
    <glyph glyph-name="hyphen" unicode="-" horiz-adv-x="575" 
d="M0 758h575v-334h-575v334z" />
    <glyph glyph-name="period" unicode="." horiz-adv-x="643" 
d="M500 348v-348h-355v348h355z" />
    <glyph glyph-name="slash" unicode="/" horiz-adv-x="1214" 
d="M147 -205l543 1721h377l-541 -1721h-379z" />
    <glyph glyph-name="zero" unicode="0" horiz-adv-x="1265" 
d="M68 547v422q0 126 39 227.5t99.5 164.5t138.5 106t151 60t143 17q64 0 133.5 -16t147 -58t138 -104t100.5 -165.5t40 -231.5v-422q0 -122 -35.5 -221.5t-92.5 -164t-131.5 -108.5t-149.5 -63t-150 -19q-71 0 -145.5 18t-151.5 62t-137.5 108t-98.5 164.5t-38 223.5z
M455 979v-442q0 -39 7 -74t25 -71.5t55.5 -58.5t90.5 -22q42 0 74.5 13t51 36.5t30 46t16 53t5.5 44.5t1 33v442q0 225 -178 225q-44 0 -77.5 -16t-52 -39.5t-30 -55.5t-15 -59t-3.5 -55z" />
    <glyph glyph-name="one" unicode="1" horiz-adv-x="1265" 
d="M461 0v1190h-248v326h635v-1516h-387z" />
    <glyph glyph-name="two" unicode="2" horiz-adv-x="1265" 
d="M104 0v301q286 240 408 344q58 48 90 76.5t70.5 69.5t57.5 74.5t32.5 77t13.5 91.5q0 86 -44 128t-118 42q-38 0 -66.5 -14.5t-45 -37t-26.5 -56t-13 -63.5t-4 -68h-369q2 52 4.5 81t11 80t27 97t47.5 90q45 71 109.5 120t132.5 71.5t121.5 31t103.5 8.5q123 0 222.5 -39
t162.5 -104.5t97 -149t34 -176.5q0 -143 -54 -254t-196 -241q-184 -168 -278 -254h539v-326h-1070z" />
    <glyph glyph-name="three" unicode="3" horiz-adv-x="1265" 
d="M489 1073h-380q5 245 184 371q138 100 334 100q107 0 198 -34.5t150.5 -92.5t93 -132.5t33.5 -154.5q0 -59 -17 -110.5t-36.5 -82t-54 -60t-50 -39t-43.5 -25.5q58 -20 105 -48.5t76 -57t50.5 -64t31.5 -61.5t15.5 -58t6 -46t0.5 -32q0 -129 -76 -239t-205.5 -173
t-279.5 -63q-141 0 -272 55t-201 158q-65 93 -84 269h391q32 -140 174 -142q81 0 123.5 47t42.5 123q0 41 -16.5 71t-38.5 45.5t-53 24.5t-52 11t-43 2h-137v285h65q19 0 34 1t47.5 9t53.5 22t38.5 45t17.5 74q0 55 -27 94t-80 39q-39 0 -65 -14t-36.5 -39.5t-13.5 -40
t-4 -37.5z" />
    <glyph glyph-name="four" unicode="4" horiz-adv-x="1265" 
d="M698 0v266h-667v283l678 967h360v-947h168v-303h-168v-266h-371zM420 569h303v475z" />
    <glyph glyph-name="five" unicode="5" horiz-adv-x="1265" 
d="M238 1516h837v-326h-540l-33 -207q26 14 46 22.5t61.5 15.5t97.5 7q103 0 189.5 -33t143.5 -85.5t97 -120.5t57.5 -136t17.5 -133q0 -59 -15 -121t-44.5 -124.5t-78.5 -117t-111 -97t-147.5 -67t-184.5 -24.5q-235 0 -389 124t-189 313h389q30 -40 76.5 -67.5
t102.5 -27.5q84 0 144 59t60 142q0 79 -55.5 139t-151.5 60q-140 0 -198 -131l-314 77z" />
    <glyph glyph-name="six" unicode="6" horiz-adv-x="1265" 
d="M559 1516h449l-275 -375q-10 -14 -30 -41.5t-29 -40.5q1 -1 14 0l32.5 2.5t31.5 1.5q85 0 168 -33t153 -94.5t113 -162t43 -224.5q0 -168 -80.5 -301.5t-214 -205t-293.5 -71.5q-146 0 -270 53t-199 152q-67 76 -98 179t-31 202q0 192 139 406zM424 522v-2
q0 -97 63.5 -153t141.5 -56q88 0 150.5 58t62.5 147q0 80 -57.5 143.5t-155.5 63.5q-90 0 -147.5 -59.5t-57.5 -141.5z" />
    <glyph glyph-name="seven" unicode="7" horiz-adv-x="1265" 
d="M133 1516h987v-297l-532 -1219h-426l559 1190h-588v326z" />
    <glyph glyph-name="eight" unicode="8" horiz-adv-x="1265" 
d="M119 1122v2q0 62 19.5 121.5t60.5 114t100.5 95.5t145.5 65t188 24q127 0 228 -36.5t162 -98t92.5 -135t31.5 -152.5q0 -48 -12 -92t-25.5 -71t-39 -56.5t-37 -39.5t-34.5 -29q187 -94 187 -353q0 -223 -154.5 -366.5t-398.5 -143.5t-398.5 143.5t-154.5 366.5
q0 259 186 353q-29 24 -45 40t-44.5 53t-43 86t-14.5 109zM494 1092v-2q0 -59 41 -98.5t98 -39.5t98 40t41 100t-41 99.5t-98 39.5t-98 -39.5t-41 -99.5zM467 483v-2q0 -64 46.5 -117t119.5 -53q74 0 120 53.5t46 118.5q0 67 -45.5 120.5t-120.5 53.5t-120.5 -53.5
t-45.5 -120.5z" />
    <glyph glyph-name="nine" unicode="9" horiz-adv-x="1265" 
d="M711 0h-449l275 375q9 13 29 40.5t30 41.5q-1 1 -14 0l-32.5 -2.5t-31.5 -1.5q-85 0 -168 33t-153 94.5t-113 162t-43 224.5q0 127 47 236t127 183t187.5 116t226.5 42q146 0 270 -53t199 -152q67 -76 98 -179t31 -202q0 -189 -140 -405zM846 995v2q0 96 -64 151.5
t-145 55.5q-86 0 -147.5 -57t-61.5 -146q0 -80 56 -143t153 -63q92 0 150.5 59t58.5 141z" />
    <glyph glyph-name="colon" unicode=":" horiz-adv-x="643" 
d="M500 1137v-349h-355v349h355zM500 348v-348h-355v348h355z" />
    <glyph glyph-name="semicolon" unicode=";" horiz-adv-x="643" 
d="M500 1137v-349h-355v349h355zM500 348l-226 -512h-260l131 512h355z" />
    <glyph glyph-name="less" unicode="&#x3c;" horiz-adv-x="1228" 
d="M94 676l1041 438v-358l-697 -240l697 -235v-359l-1041 438v316z" />
    <glyph glyph-name="equal" unicode="=" horiz-adv-x="1228" 
d="M98 952h1032v-327h-1032v327zM98 412h1032v-328h-1032v328z" />
    <glyph glyph-name="greater" unicode="&#x3e;" horiz-adv-x="1228" 
d="M94 281l697 239l-697 236v358l1041 -438v-316l-1041 -438v359z" />
    <glyph glyph-name="question" unicode="?" horiz-adv-x="1212" 
d="M739 481h-356q1 100 50.5 176.5t162.5 184.5q76 74 107.5 125.5t31.5 99.5q0 59 -29.5 93t-89.5 34q-40 0 -68.5 -13.5t-42.5 -37.5t-20 -48t-8 -55q-2 -14 -2 -43h-375q-2 18 -2 37q0 221 152 365.5t387 144.5q115 0 210.5 -39t155.5 -102t92.5 -139t32.5 -154
q0 -54 -14.5 -105t-33.5 -87t-55 -79t-60 -66t-68 -64q-94 -87 -123.5 -132t-34.5 -96zM739 348v-348h-356v348h356z" />
    <glyph glyph-name="at" unicode="@" horiz-adv-x="1531" 
d="M1235 229l43 -188q-205 -74 -475 -74q-124 0 -232.5 26.5t-189.5 72.5t-147 108.5t-110 132.5t-74 147.5t-43 150.5t-13 143q0 122 35.5 239.5t106 218.5t166 177.5t223.5 120.5t272 44q158 0 294 -52.5t230 -143t147.5 -213.5t53.5 -262q0 -145 -56 -273t-149 -203
t-197 -75q-148 0 -200 147q-51 -83 -108 -115t-136 -32q-132 0 -224 103.5t-92 258.5q0 80 29.5 161.5t80 148t127 108t163.5 41.5q78 0 131 -35t72 -86l20 96h213l-76 -446q-11 -70 -14 -98q-3 -60 55 -60q60 0 114 106.5t54 249.5q0 214 -148.5 351t-375.5 137
q-132 0 -246.5 -52.5t-191 -139t-120.5 -198t-44 -229.5q0 -39 5.5 -83.5t23 -103.5t44.5 -113t74 -108t107.5 -93t149.5 -63.5t196 -24.5q228 0 432 75zM580 696v-2q0 -89 46 -132.5t107 -43.5q57 0 100.5 37t67.5 102q21 68 21 131q0 41 -12 76.5t-44 62.5t-80 27
q-87 0 -146.5 -79t-59.5 -179z" />
    <glyph glyph-name="A" unicode="A" horiz-adv-x="1552" 
d="M508 219l-70 -219h-420l600 1516h334l582 -1516h-424l-72 219h-530zM938 526l-170 529l-164 -529h334z" />
    <glyph glyph-name="B" unicode="B" horiz-adv-x="1325" 
d="M137 0v1516h557q237 0 367 -103q135 -101 135 -295q0 -93 -44 -174t-132 -131q69 -24 119.5 -64.5t74.5 -77.5t38 -84.5t16 -72t2 -53.5q0 -94 -36.5 -184.5t-103.5 -145.5q-100 -84 -196 -107.5t-299 -23.5h-498zM524 1176v-236h138q67 0 102 14q61 28 61 107
q0 75 -59 100q-35 15 -104 15h-138zM524 616v-276h183q73 0 114 18q78 33 78 127q0 86 -74 115q-39 16 -118 16h-183z" />
    <glyph glyph-name="C" unicode="C" horiz-adv-x="1703" 
d="M1235 567h405q-66 -268 -278 -432t-488 -164q-173 0 -324 65.5t-254 175t-161.5 252.5t-58.5 296q0 116 34.5 230t103 213.5t162.5 176t222 120.5t272 44q136 0 257.5 -40t207.5 -104t152.5 -145t103 -160.5t49.5 -154.5h-405q-14 36 -34.5 71t-53.5 70.5t-72 62
t-93 43.5t-114 17q-94 0 -172.5 -38.5t-128 -102t-77 -141.5t-27.5 -160q0 -116 48 -218t143 -167.5t216 -65.5q68 0 128.5 22.5t97.5 51t70 70.5t45 64t24 48z" />
    <glyph glyph-name="D" unicode="D" horiz-adv-x="1519" 
d="M137 0v1516h502q51 0 81 -0.5t90.5 -6t103 -15.5t102 -31t105.5 -50t96.5 -75t91.5 -105q139 -191 139 -471q0 -128 -25.5 -238.5t-84 -208t-147 -166.5t-222 -109t-301.5 -40h-531zM524 1176v-836h166q104 0 179 34t115.5 94.5t58.5 131t18 156.5q0 164 -74 280
q-93 140 -295 140h-168z" />
    <glyph glyph-name="E" unicode="E" horiz-adv-x="1081" 
d="M137 0v1516h858v-340h-471v-236h457v-340h-457v-260h471v-340h-858z" />
    <glyph glyph-name="F" unicode="F" horiz-adv-x="1036" 
d="M137 0v1516h828v-340h-441v-258h424v-340h-424v-578h-387z" />
    <glyph glyph-name="G" unicode="G" horiz-adv-x="1748" 
d="M1640 1008h-434q-29 55 -80 102q-108 94 -254 94q-74 0 -145.5 -27.5t-132 -79.5t-98 -139t-37.5 -194q0 -92 25 -169t66.5 -128.5t95.5 -88t111.5 -53t116.5 -16.5q142 0 238 68q95 64 125 176h-453v309h899q7 -97 -8.5 -215t-60.5 -219q-43 -97 -109.5 -176
t-141.5 -130.5t-161 -86.5t-166.5 -50.5t-158.5 -15.5q-169 0 -319 63.5t-256 170.5t-168 253.5t-62 307.5q0 222 109.5 401.5t295 279t406.5 99.5q176 0 336.5 -73t269.5 -195t151 -268z" />
    <glyph glyph-name="H" unicode="H" horiz-adv-x="1544" 
d="M524 0h-387v1516h387v-570h496v570h387v-1516h-387v606h-496v-606z" />
    <glyph glyph-name="I" unicode="I" horiz-adv-x="661" 
d="M137 0v1516h387v-1516h-387z" />
    <glyph glyph-name="J" unicode="J" horiz-adv-x="1183" 
d="M1044 1516v-916q0 -253 -49 -360q-24 -52 -71 -101.5t-97 -79.5q-137 -88 -305 -88q-17 0 -36 1t-66 9t-89 21.5t-94.5 43.5t-92.5 71t-74 106.5t-47 147.5q-11 68 -11 116h412q0 -13 4 -45q17 -131 113 -131q77 0 102 70q14 41 14 123v1012h387z" />
    <glyph glyph-name="K" unicode="K" horiz-adv-x="1447" 
d="M178 0v1516h387v-682l432 682h406l-500 -754l551 -762h-471l-418 655v-655h-387z" />
    <glyph glyph-name="L" unicode="L" horiz-adv-x="997" 
d="M147 0v1516h388v-1176h448v-340h-836z" />
    <glyph glyph-name="M" unicode="M" horiz-adv-x="1873" 
d="M494 0h-357v1516h518l285 -977l277 977h520v-1516h-357l13 1135l-328 -1135h-256l-328 1135z" />
    <glyph glyph-name="N" unicode="N" horiz-adv-x="1554" 
d="M471 1516l582 -924l-9 924h371v-1516h-336l-579 913l8 -913h-371v1516h334z" />
    <glyph glyph-name="O" unicode="O" horiz-adv-x="1742" 
d="M72 739v2q0 181 66 334t176.5 254.5t254.5 158t301 56.5q171 0 321.5 -63.5t255 -171t164.5 -251t60 -300.5t-60 -301t-164 -251t-255.5 -171t-323.5 -64q-173 0 -324.5 65.5t-253.5 173t-160 245.5t-58 284zM459 762v-2q0 -87 29 -167.5t82 -143.5t132.5 -100.5
t174.5 -37.5q79 0 147 27.5t115 73t80.5 103.5t49 119.5t15.5 121.5q0 61 -15.5 122.5t-49.5 120.5t-81 104.5t-116 73t-150 27.5q-97 0 -177 -39t-130.5 -102.5t-78 -141.5t-27.5 -159z" />
    <glyph glyph-name="P" unicode="P" horiz-adv-x="1302" 
d="M137 1516h496q197 0 298 -27t169 -84q87 -72 132.5 -177t45.5 -224q0 -116 -44 -226.5t-116 -171.5q-83 -70 -178 -100.5t-264 -30.5h-152v-475h-387v1516zM524 1176v-361h142q98 0 149 23q92 41 92 159q0 114 -96 156q-53 23 -160 23h-127z" />
    <glyph glyph-name="Q" unicode="Q" horiz-adv-x="1773" 
d="M1751 281v-308q-58 -4 -96 -4q-138 0 -226 37t-131 82q-192 -119 -426 -119q-143 0 -270.5 44t-223 120t-165.5 175.5t-105.5 213t-35.5 228.5q0 119 35.5 235t104.5 216.5t164 177t222 121t270 44.5t271.5 -43t225 -118t168 -173t108 -211t36.5 -229q0 -88 -12.5 -163
t-36.5 -131.5t-38.5 -82.5t-37.5 -61q33 -30 79 -40.5t120 -10.5zM870 1204h-2q-134 0 -237 -77t-148 -216q-15 -50 -16 -61q4 1 21 6.5t26 8t27.5 8t33.5 8t34.5 6t39.5 5t41 1.5q89 0 164.5 -22.5t157.5 -79.5q71 -50 122.5 -97t114.5 -116q41 77 41 192
q0 130 -58.5 230.5t-153.5 152t-208 51.5zM868 309h2q101 0 154 31q-57 74 -129 135q-106 90 -244 90q-84 0 -141 -22q31 -75 94 -130t131 -79.5t133 -24.5z" />
    <glyph glyph-name="R" unicode="R" horiz-adv-x="1337" 
d="M137 0v1516h496q330 0 469 -109q184 -142 184 -414q0 -154 -76 -274q-68 -107 -196 -162l313 -557h-399l-396 731h64q170 0 233 41q37 24 61.5 74.5t24.5 111.5q0 58 -25 104.5t-65 72.5q-65 41 -157 41h-144v-1176h-387z" />
    <glyph glyph-name="S" unicode="S" horiz-adv-x="1173" 
d="M51 502h385q0 -62 17 -106t44 -64t51 -28.5t46 -8.5q66 0 106.5 44.5t40.5 100.5t-52 89t-245 114q-34 14 -54.5 23t-64 32t-72.5 44.5t-66 57.5t-59 74t-38 91t-16 112q0 110 47 201t123.5 147.5t169.5 87.5t190 31q67 0 133 -13.5t134.5 -47.5t120.5 -86t86 -135.5
t36 -188.5h-383l-6 36t-12 37t-23 38.5t-38.5 25t-59.5 11.5q-53 0 -93 -33.5t-40 -85.5q0 -50 49 -82t264 -129q138 -62 217.5 -131t108 -139.5t28.5 -163.5q0 -76 -16 -144t-55 -131.5t-97.5 -109.5t-151 -73.5t-208.5 -27.5t-210 27t-157.5 74.5t-105.5 114.5
t-59.5 145.5t-14.5 169.5z" />
    <glyph glyph-name="T" unicode="T" horiz-adv-x="1021" 
d="M319 0v1176h-299v340h984v-340h-297v-1176h-388z" />
    <glyph glyph-name="U" unicode="U" horiz-adv-x="1429" 
d="M133 1516h387v-916q0 -118 27 -182q49 -107 170 -107q127 0 168 99q24 55 24 190v916h387v-916q0 -180 -36.5 -283t-114.5 -182q-161 -164 -424 -164q-48 0 -99 7t-112.5 23t-121 50t-103.5 82q-91 100 -121.5 197.5t-30.5 269.5v916z" />
    <glyph glyph-name="V" unicode="V" horiz-adv-x="1478" 
d="M539 0l-506 1516h397l307 -1063l310 1063h399l-508 -1516h-399z" />
    <glyph glyph-name="W" unicode="W" horiz-adv-x="2009" 
d="M424 0l-391 1516h393l207 -986l223 986h297l223 -990l207 990h391l-401 -1516h-340l-232 981l-227 -981h-350z" />
    <glyph glyph-name="X" unicode="X" horiz-adv-x="1554" 
d="M23 0l530 807l-469 709h438l260 -433l252 433h436l-462 -717l524 -799h-438l-328 537l-311 -537h-432z" />
    <glyph glyph-name="Y" unicode="Y" horiz-adv-x="1325" 
d="M471 0v551l-453 965h420l226 -609l227 609h416l-449 -965v-551h-387z" />
    <glyph glyph-name="Z" unicode="Z" horiz-adv-x="1021" 
d="M989 1202l-483 -862h483v-340h-956v254l522 922h-522v340h956v-314z" />
    <glyph glyph-name="bracketleft" unicode="[" horiz-adv-x="968" 
d="M821 -164v-274h-626v1954h626v-275h-299v-1405h299z" />
    <glyph glyph-name="backslash" unicode="\" horiz-adv-x="1214" 
d="M688 -205l-541 1721h377l543 -1721h-379z" />
    <glyph glyph-name="bracketright" unicode="]" horiz-adv-x="968" 
d="M147 -438v274h299v1405h-299v275h627v-1954h-627z" />
    <glyph glyph-name="asciicircum" unicode="^" horiz-adv-x="1228" 
d="M88 768l356 748h340l357 -748h-369l-160 457l-157 -457h-367z" />
    <glyph glyph-name="underscore" unicode="_" horiz-adv-x="1024" 
d="M1024 -256h-1024v102h1024v-102z" />
    <glyph glyph-name="grave" unicode="`" 
d="M332 1718l495 -262l-94 -199l-506 222z" />
    <glyph glyph-name="a" unicode="a" horiz-adv-x="1441" 
d="M1317 1137v-1137h-340v123q-44 -79 -136.5 -120.5t-199.5 -41.5q-131 0 -240.5 49t-181 133t-110.5 193.5t-39 232.5q0 136 46.5 251.5t125.5 192.5t182 120t217 43q126 0 210.5 -48t125.5 -112v121h340zM410 565v-2q0 -33 9.5 -69.5t31 -75t53 -69.5t80.5 -50.5
t108 -19.5q160 0 238 127q41 63 47 145q6 77 -29 149q-32 68 -95.5 113t-162.5 45q-70 0 -125.5 -27.5t-88 -71t-49.5 -93.5t-17 -101z" />
    <glyph glyph-name="b" unicode="b" horiz-adv-x="1419" 
d="M123 0v1516h340v-383v-86q121 129 330 129q74 0 149.5 -20.5t150 -67.5t131.5 -115t92.5 -171t35.5 -227q0 -119 -32 -220.5t-87 -173t-128.5 -122t-156 -74.5t-170.5 -24q-114 0 -202.5 47t-126.5 113v-121h-326zM1012 569v2q0 114 -79 200.5t-200 86.5q-128 0 -205 -87
t-77 -200q0 -122 76 -207t200 -85q126 0 205.5 86.5t79.5 203.5z" />
    <glyph glyph-name="c" unicode="c" horiz-adv-x="1335" 
d="M926 432h346q-47 -201 -210 -335t-386 -134q-169 0 -309 81t-219.5 220.5t-79.5 306.5q0 165 78.5 304t216.5 220t305 81q225 0 392 -134t210 -344h-344q-76 160 -246 160q-118 6 -197 -80q-73 -82 -73 -209q0 -126 75 -207t195 -81q166 0 246 151z" />
    <glyph glyph-name="d" unicode="d" horiz-adv-x="1429" 
d="M1307 1516v-1516h-324v123q-15 -21 -27 -35.5t-42.5 -40.5t-64.5 -42t-89.5 -29t-120.5 -13q-126 0 -233.5 47t-180.5 128.5t-114 193.5t-41 239q0 112 30.5 210t84.5 169.5t125 123t153.5 77t169.5 25.5q70 0 129 -14.5t101.5 -41t61.5 -42t42 -38.5v123v353h340z
M410 573v-2q0 -129 81 -209.5t203 -80.5q125 0 211 86t80 211q0 119 -84 200q-80 80 -203 80q-71 0 -127.5 -26t-90.5 -68t-52 -91t-18 -100z" />
    <glyph glyph-name="e" unicode="e" horiz-adv-x="1323" 
d="M1247 451h-846q10 -89 85.5 -145t177.5 -56q76 0 123.5 28t82.5 78h349q-80 -186 -232 -290q-142 -103 -323 -103q-161 0 -299.5 79t-221 218.5t-82.5 304.5q0 118 45 229t122.5 195.5t190 135.5t238.5 51q128 0 238.5 -47.5t191.5 -133.5q202 -218 160 -544zM406 709
h507q-3 23 -19 51t-44.5 58.5t-78.5 50.5t-112 20t-112 -20t-78.5 -50.5t-44 -58.5t-18.5 -51z" />
    <glyph glyph-name="f" unicode="f" horiz-adv-x="643" 
d="M135 0v879h-127v258h127v49q0 69 14.5 123.5t38.5 91.5t62 64t76.5 42t91.5 23.5t97 11t103 2.5v-256q-22 0 -33 -0.5t-31.5 -3t-31.5 -9.5t-23.5 -18.5t-18 -31t-5.5 -45.5v-43h143v-258h-143v-879h-340z" />
    <glyph glyph-name="g" unicode="g" horiz-adv-x="1419" 
d="M1300 1137v-1000q0 -136 -14 -221.5t-53 -153.5q-71 -115 -223.5 -191.5t-352.5 -76.5q-113 0 -207.5 26.5t-156.5 67.5t-107 95.5t-67 106.5t-29 104h393q33 -72 109 -99q41 -14 90 -14q51 0 98 16t88 47.5t65.5 86.5t24.5 126v68q-37 -63 -116 -112.5t-199 -49.5
q-116 0 -220 42.5t-182.5 119t-124.5 190t-46 246.5q0 141 48 259t128 194t182.5 118t214.5 42q100 0 185 -36.5t133 -107.5v107h339zM410 573v-2q0 -130 80.5 -210t191.5 -80q122 0 199 77q74 77 80 197q0 132 -72 213q-72 88 -205 88q-112 0 -193 -80.5t-81 -202.5z" />
    <glyph glyph-name="h" unicode="h" horiz-adv-x="1294" 
d="M123 0v1516h340v-340v-144q44 73 122.5 108.5t174.5 35.5q239 0 338 -162q78 -125 78 -379v-635h-340v618q0 110 -35 166q-49 72 -148 72q-123 0 -166 -92q-24 -47 -24 -133v-631h-340z" />
    <glyph glyph-name="i" unicode="i" horiz-adv-x="585" 
d="M123 1257v259h340v-259h-340zM123 0v1137h340v-1137h-340z" />
    <glyph glyph-name="j" unicode="j" horiz-adv-x="657" 
d="M178 1257v259h340v-259h-340zM518 1137v-1112q0 -62 -3.5 -108.5t-14.5 -94.5t-30.5 -82.5t-51 -66t-75.5 -50.5t-106 -30t-141 -11h-84v258h45q34 0 58 11t36 25t18.5 40.5t7.5 45t1 50.5v1125h340z" />
    <glyph glyph-name="k" unicode="k" horiz-adv-x="1210" 
d="M135 0v1516h340v-791l320 412h403l-428 -500l416 -637h-385l-326 547v-547h-340z" />
    <glyph glyph-name="l" unicode="l" horiz-adv-x="585" 
d="M123 0v1516h340v-1516h-340z" />
    <glyph glyph-name="m" unicode="m" horiz-adv-x="1984" 
d="M123 0v1137h317v-121q21 41 70 80q96 80 248 80q156 0 260 -109q39 -39 67 -94q40 61 82 98q117 105 279 105q189 0 299 -115q78 -83 100.5 -165.5t22.5 -274.5v-621h-340v604q0 109 -23 160q-35 92 -151 92q-122 0 -164 -94q-25 -51 -25 -141v-621h-340v618
q0 91 -20 142q-42 96 -150 96q-123 0 -168 -100q-24 -53 -24 -152v-604h-340z" />
    <glyph glyph-name="n" unicode="n" horiz-adv-x="1294" 
d="M123 0v1137h317v-121q18 25 28.5 39t40 40.5t59 41t79 27t107.5 12.5q79 0 143.5 -18t107.5 -47t75.5 -70t50 -82t28.5 -89t14 -84t3 -75v-711h-340v621q0 52 -7 90.5t-25 73t-55 53t-92 18.5q-49 0 -84.5 -14t-56.5 -35.5t-33 -54.5t-16 -64t-4 -70v-618h-340z" />
    <glyph glyph-name="o" unicode="o" horiz-adv-x="1363" 
d="M70 569v2q0 85 23.5 169t73.5 162.5t120.5 139t172.5 96.5t222 36t222 -36t172.5 -96.5t120.5 -139t73.5 -163.5t23.5 -170t-23.5 -170t-73.5 -163.5t-120.5 -138.5t-172.5 -96t-222 -36t-222 36t-172.5 96t-120.5 138.5t-73.5 163.5t-23.5 170zM410 569v-2
q0 -121 80 -202.5t192 -81.5t192 81.5t80 204.5t-80 205t-192 82t-192 -82t-80 -205z" />
    <glyph glyph-name="p" unicode="p" horiz-adv-x="1427" 
d="M123 -379v1516h319v-125q141 164 361 164q116 0 212 -39t158 -102.5t105 -146t61.5 -165.5t18.5 -166q0 -163 -70 -299t-197.5 -216.5t-285.5 -80.5q-72 0 -132 14.5t-102.5 41t-63.5 44t-44 41.5v-102v-379h-340zM1018 567v2q0 51 -19 101.5t-53.5 92.5t-90 68.5
t-122.5 26.5q-122 0 -205 -86q-79 -82 -79 -207q0 -122 81 -203q83 -83 203 -83q127 0 206 87t79 201z" />
    <glyph glyph-name="q" unicode="q" horiz-adv-x="1429" 
d="M1307 1137v-1516h-340v379v117q-22 -28 -44 -48t-63.5 -47.5t-103.5 -43t-138 -15.5q-158 0 -284 78t-195 211t-69 295q0 144 45.5 263.5t123.5 199t181.5 123t220.5 43.5q224 0 340 -164v125h326zM410 561v-2q0 -46 18 -93t51.5 -89.5t90 -69t126.5 -26.5q117 0 201 84
q82 82 82 200q6 121 -80 207t-207 86q-130 0 -206 -88.5t-76 -208.5z" />
    <glyph glyph-name="r" unicode="r" horiz-adv-x="743" 
d="M121 0v1137h319v-127q14 25 24 41.5t35 42.5t53 42t74.5 28t102.5 12v-342h-12q-132 0 -194 -52.5t-62 -171.5v-610h-340z" />
    <glyph glyph-name="s" unicode="s" horiz-adv-x="1021" 
d="M940 817h-334q-1 15 -3.5 25t-12 26.5t-32.5 25.5t-58 9q-49 0 -73 -24t-24 -52q0 -35 47 -61.5t128 -50.5q42 -11 65 -18t62 -20t62 -23.5t55.5 -28t51.5 -35t40.5 -42.5t33 -52t19.5 -62.5t8 -75.5q0 -121 -63.5 -213t-168 -138t-231.5 -46q-56 0 -111.5 10t-116.5 37
t-108.5 68t-82.5 108.5t-44 153.5h338q4 -29 18 -50.5t29 -31.5t35 -16t29 -6.5t18 -0.5q46 0 82.5 25t36.5 64q0 17 -4.5 29.5t-18 24t-27 20t-42.5 20.5t-54 21t-71 25.5t-84 31.5q-120 38 -195.5 113t-75.5 184q0 114 61.5 203.5t161 135.5t218.5 46q50 0 100.5 -8
t109 -32.5t104 -62.5t80 -104t42.5 -152z" />
    <glyph glyph-name="t" unicode="t" horiz-adv-x="718" 
d="M190 0v879h-167v258h167v379h340v-379h164v-258h-164v-879h-340z" />
    <glyph glyph-name="u" unicode="u" horiz-adv-x="1298" 
d="M1176 1137v-1137h-318v121q-18 -25 -28.5 -38.5t-39.5 -40.5t-59 -41.5t-80 -27t-108 -12.5q-80 0 -144.5 18t-108 47t-76 70t-50 82t-28.5 89t-14 84t-3 75v711h340v-621q0 -52 7 -90t25 -73t55.5 -53.5t92.5 -18.5q61 0 102 19.5t60.5 56t27 74t7.5 87.5v619h340z" />
    <glyph glyph-name="v" unicode="v" horiz-adv-x="1212" 
d="M1178 1137l-410 -1137h-326l-407 1137h352l219 -709l219 709h353z" />
    <glyph glyph-name="w" unicode="w" horiz-adv-x="1740" 
d="M362 0l-348 1137h353l174 -707l186 707h287l192 -707l170 707h350l-348 -1137h-315l-195 735l-190 -735h-316z" />
    <glyph glyph-name="x" unicode="x" horiz-adv-x="1290" 
d="M2 0l432 608l-383 529h408l184 -299l182 299h404l-383 -529l440 -608h-416l-227 352l-231 -352h-410z" />
    <glyph glyph-name="y" unicode="y" horiz-adv-x="1175" 
d="M244 -379l180 436l-422 1080h363l231 -660l217 660h361l-570 -1516h-360z" />
    <glyph glyph-name="z" unicode="z" horiz-adv-x="909" 
d="M31 0v233l479 646h-479v258h846v-258l-445 -621h445v-258h-846z" />
    <glyph glyph-name="braceleft" unicode="{" horiz-adv-x="1134" 
d="M989 1516v-259h-112q-32 0 -55 -9t-35 -21.5t-19 -32t-8.5 -35t-1.5 -35.5v-428q0 -40 -12.5 -73.5t-32 -55.5t-43 -39t-47 -27t-43 -16t-31.5 -9l-12 -3q33 -2 66 -10.5t70 -28t60.5 -58t24.5 -91.5v-435q0 -20 1.5 -35.5t8.5 -35t19 -32t35 -21.5t55 -9h112v-258h-262
q-62 0 -117 17t-99.5 50t-70.5 89t-26 127v434q0 39 -23 66.5t-59.5 39t-64 15.5t-52.5 4v352q25 0 53 5t64 17.5t59 42.5t23 73v442q0 71 26 127t70.5 89t99.5 50t117 17h262z" />
    <glyph glyph-name="bar" unicode="|" 
d="M381 1536h375v-2048h-375v2048z" />
    <glyph glyph-name="braceright" unicode="}" horiz-adv-x="1134" 
d="M145 1257v259h263q62 0 117 -17t99.5 -50t70.5 -89t26 -127v-442q0 -43 23 -73t59 -42.5t64 -17.5t53 -5v-352q-25 0 -52.5 -4t-64 -15.5t-59.5 -39t-23 -66.5v-434q0 -71 -26 -127t-70.5 -89t-99.5 -50t-117 -17h-263v258h113q32 0 55 9t35 21.5t19 32t8.5 35t1.5 35.5
v435q1 42 23.5 77t55 56t65 35t55.5 21l22 7q-31 3 -51.5 6t-56 16.5t-57 34.5t-38.5 61.5t-18 96.5v428q0 20 -1.5 35.5t-8.5 35t-19 32t-35 21.5t-55 9h-113z" />
    <glyph glyph-name="asciitilde" unicode="~" horiz-adv-x="1228" 
d="M1018 772l74 -323q-34 -46 -52.5 -67.5t-53 -53.5t-72.5 -46t-83 -14q-52 0 -99 17t-109 51q-128 72 -236 72q-60 0 -100.5 -38.5t-75.5 -103.5l-74 320q44 82 105.5 132t154.5 50q81 0 228 -66q12 -5 44 -19.5t48 -21t40.5 -15.5t42.5 -13t34 -4q29 0 54.5 10.5t51 36.5
t38.5 42.5t40 53.5z" />
    <glyph glyph-name="uni00A0" unicode="&#xa0;" horiz-adv-x="632" 
 />
    <glyph glyph-name="exclamdown" unicode="&#xa1;" horiz-adv-x="681" 
d="M166 788v349h350v-349h-350zM166 -379v1016h350v-1016h-350z" />
    <glyph glyph-name="cent" unicode="&#xa2;" horiz-adv-x="1265" 
d="M774 63h-280v216q-85 29 -151.5 75.5t-106 97t-65 109t-34.5 107.5t-10 96q0 70 20.5 141.5t62.5 141t115.5 126.5t168.5 87v215h268v-207q89 -24 161.5 -73t116.5 -107.5t69 -116.5t30 -111h-353q-22 38 -61 60t-84 22q-71 0 -123.5 -50.5t-52.5 -123.5q0 -71 51 -121.5
t125 -50.5q36 0 65.5 12.5t43 25.5t28.5 32h361q-16 -81 -58 -157t-122.5 -141.5t-184.5 -88.5v-216z" />
    <glyph glyph-name="sterling" unicode="&#xa3;" horiz-adv-x="1265" 
d="M846 854v-272h-158q22 -25 34 -42.5t23 -44.5t11 -55q0 -31 -13.5 -58.5t-26.5 -41t-40 -37.5h84q63 0 104 21q64 37 64 118q0 25 -15 74h330q23 -76 23 -131q0 -52 -23.5 -117.5t-71.5 -122.5q-123 -145 -354 -145h-727v303h100q42 0 71.5 4t58 14.5t43 34t14.5 58.5
q0 20 -6 40.5t-18 41t-20.5 33t-24 31.5t-17.5 22h-262v272h98q-57 85 -57 193q0 71 23 142.5t69.5 135.5t110.5 113.5t152.5 78.5t188.5 29q224 0 376 -137.5t161 -368.5h-356q-2 21 -6.5 39.5t-17 43t-30 42t-49 29.5t-71.5 12q-72 0 -118 -52.5t-46 -117.5
q0 -45 12.5 -84t24.5 -56t32 -42h320z" />
    <glyph glyph-name="currency" unicode="&#xa4;" horiz-adv-x="1265" 
d="M1100 78l-168 170q-136 -90 -299 -90q-158 0 -297 90l-170 -168l-166 164l174 174q-80 129 -80 278q0 160 86 293l-180 176l168 168l180 -180q130 82 285 82t280 -80l181 176l163 -166l-174 -174q88 -138 88 -295q0 -152 -77 -278l172 -172zM412 698v-2q0 -91 64.5 -157
t156.5 -66q91 0 156 66t65 159t-64 159.5t-157 66.5t-157 -67t-64 -159z" />
    <glyph glyph-name="yen" unicode="&#xa5;" horiz-adv-x="1265" 
d="M1225 1071v-283h-348l-54 -100v-61h402v-285h-404v-342h-381v342h-401v285h401v55l-53 106h-344v283h203l-244 445h410l223 -486l227 486h404l-240 -445h199z" />
    <glyph glyph-name="brokenbar" unicode="&#xa6;" 
d="M381 1382h375v-716h-375v716zM381 358h375v-716h-375v716z" />
    <glyph glyph-name="section" unicode="&#xa7;" horiz-adv-x="1372" 
d="M1196 1122h-334q-33 119 -178 119q-23 0 -44.5 -4t-45.5 -14.5t-38.5 -33.5t-14.5 -56q0 -23 10.5 -42.5t32 -35t37 -23.5t41.5 -20l372 -168q32 -14 54.5 -26t55.5 -33.5t56 -46.5t45 -58.5t33.5 -78.5t11.5 -97q0 -57 -14 -105t-44.5 -90t-53 -66t-64.5 -63
q23 -32 35.5 -51.5t32 -58t28.5 -83t9 -96.5q0 -84 -31.5 -161.5t-92.5 -142t-161.5 -103.5t-226.5 -39q-34 0 -73.5 4.5t-94 18t-105.5 34.5t-104 59t-93 86.5t-68.5 121t-35.5 159.5h336q29 -174 231 -174q95 0 140 42.5t45 90.5q0 24 -11.5 45.5t-26 36t-43 31.5t-47 26
t-52.5 25l-351 162q-31 14 -48 22.5t-50 28t-53 37.5t-45.5 48t-40 61.5t-25 76t-10.5 95.5q0 187 194 329q-63 99 -63 228q0 104 43.5 184.5t115 127t156 70t174.5 23.5q113 0 207.5 -36t155 -95.5t94.5 -134.5t37 -156zM989 446v3q0 41 -34 71.5t-105 61.5l-379 170
q-80 -39 -80 -113q0 -28 10 -50.5t30 -38t33.5 -23.5t35.5 -17l413 -191q76 49 76 127z" />
    <glyph glyph-name="dieresis" unicode="&#xa8;" 
d="M492 1628v-309h-326v309h326zM969 1628v-309h-326v309h326z" />
    <glyph glyph-name="copyright" unicode="&#xa9;" horiz-adv-x="1638" 
d="M825 1544h2q159 0 303 -63.5t248 -169.5t165 -251t61 -302q0 -213 -105.5 -394.5t-285.5 -287t-392 -105.5q-159 0 -304 62.5t-250.5 168.5t-167.5 251.5t-62 304.5q0 157 60.5 301.5t164.5 251t251 170t312 63.5zM823 1386h-2q-170 0 -312 -85.5t-222 -229.5t-80 -313
q0 -172 83 -317t224 -228.5t307 -83.5q124 0 237 49t195.5 133t131.5 201t49 246q0 126 -47.5 241.5t-128.5 200.5t-195 135.5t-240 50.5zM1219 893h-215q-37 139 -173 139q-61 0 -106 -25t-68.5 -67t-34 -86t-10.5 -92q0 -115 55 -190.5t164 -75.5q13 0 24.5 1t37.5 10.5
t46 26.5t40.5 53.5t30.5 86.5h217q-13 -169 -123 -268t-281 -99q-197 0 -313.5 128t-116.5 329q0 90 28.5 172t82 146t137.5 101.5t188 37.5q88 0 162 -29t121.5 -76.5t75 -105t31.5 -117.5z" />
    <glyph glyph-name="ordfeminine" unicode="&#xaa;" horiz-adv-x="788" 
d="M698 1524v-586h-202v59q-43 -79 -154 -79q-123 0 -205 90t-82 223q0 144 86 228.5t205 84.5q103 0 150 -80v60h202zM258 1231v-2q0 -41 30.5 -80t88.5 -39q77 0 108 68q13 29 13 53q0 29 -11 57q-10 27 -38.5 45.5t-71.5 18.5q-57 0 -88 -37.5t-31 -83.5z" />
    <glyph glyph-name="guillemotleft" unicode="&#xab;" horiz-adv-x="864" 
d="M49 582l201 372h237l-200 -372l200 -373h-237zM422 582l201 372h237l-201 -372l201 -373h-237z" />
    <glyph glyph-name="logicalnot" unicode="&#xac;" horiz-adv-x="1228" 
d="M94 911h1041v-690h-328v363h-713v327z" />
    <glyph glyph-name="uni00AD" unicode="&#xad;" horiz-adv-x="575" 
d="M0 758h575v-334h-575v334z" />
    <glyph glyph-name="registered" unicode="&#xae;" horiz-adv-x="1638" 
d="M825 1544h2q127 0 246 -40.5t214.5 -114.5t167 -171t110.5 -216t39 -244q0 -213 -105.5 -394.5t-285.5 -287t-392 -105.5q-159 0 -304 62.5t-250.5 168.5t-167.5 251.5t-62 304.5q0 156 60.5 300.5t164.5 251t251 170.5t312 64zM823 1386h-2q-170 0 -311.5 -85t-222 -229
t-80.5 -314q0 -171 83 -316t224.5 -229t306.5 -84q124 0 237 49t195.5 133t131.5 201t49 246q0 125 -47.5 240.5t-128 200.5t-194.5 136t-241 51zM485 1202h369q65 0 121 -14t101.5 -42.5t71.5 -77t26 -112.5q0 -147 -142 -211q56 -24 88 -67.5t37 -134.5q8 -118 11.5 -149
t15.5 -64h-211q-7 14 -13 57.5t-10.5 95t-5.5 56.5q-3 25 -8 41.5t-20 39t-47.5 34.5t-80.5 12h-86v-336h-217v872zM819 1053h-117v-246h105q20 0 33.5 1t37.5 8t39 19.5t27 39.5t12 65q0 39 -14 64t-39 34.5t-42.5 12t-41.5 2.5z" />
    <glyph glyph-name="macron" unicode="&#xaf;" 
d="M936 1606v-258h-735v258h735z" />
    <glyph glyph-name="degree" unicode="&#xb0;" horiz-adv-x="819" 
d="M702 1165v-2q0 -122 -84.5 -206.5t-207.5 -84.5t-208 85t-85 208t85 208t208 85t207.5 -85t84.5 -208zM289 1165v-2q0 -50 36 -86.5t85 -36.5t84.5 37t35.5 88q0 50 -35.5 87.5t-84.5 37.5t-85 -37.5t-36 -87.5z" />
    <glyph glyph-name="plusminus" unicode="&#xb1;" horiz-adv-x="1228" 
d="M451 860v279h327v-279h352v-328h-352v-266h-327v266h-353v328h353zM98 -168v328h1032v-328h-1032z" />
    <glyph glyph-name="twosuperior" unicode="&#xb2;" horiz-adv-x="833" 
d="M770 823v-217h-698v199q46 38 138 113.5t138 113.5q71 59 102 103t31 94q0 86 -78 86q-35 0 -56.5 -25t-27.5 -53.5t-6 -60.5h-252q4 135 60 217q98 141 297 141q171 0 259.5 -70t88.5 -204q0 -91 -29 -152t-102 -125q-31 -27 -92.5 -80t-91.5 -80h319z" />
    <glyph glyph-name="threesuperior" unicode="&#xb3;" horiz-adv-x="833" 
d="M45 887h264q4 -16 8.5 -26t15 -24t30.5 -21t49 -7q47 0 72.5 23t25.5 65q0 31 -24.5 54.5t-75.5 23.5h-113v184h49q123 0 123 86q0 27 -15.5 47.5t-50.5 20.5q-20 0 -34.5 -5.5t-21 -12t-11 -19t-5 -17.5t-1.5 -18h-258q1 71 26.5 125.5t63 85t86 50t88 26t76.5 6.5
q140 0 225.5 -75t85.5 -177q0 -125 -117 -188q79 -26 124.5 -85t45.5 -132q0 -120 -108 -204.5t-258 -84.5q-94 0 -179 33t-129 94q-46 62 -57 172z" />
    <glyph glyph-name="acute" unicode="&#xb4;" 
d="M309 1473l492 264l108 -242l-503 -223z" />
    <glyph glyph-name="mu" unicode="&#xb5;" horiz-adv-x="1298" 
d="M106 -389v1526h340v-562q0 -127 41 -202q52 -92 160 -92t160 92q43 74 43 202v562h340v-1137h-324v141q-10 -23 -24 -45t-40 -51t-65 -47t-86 -18q-137 0 -205 110v-98v-381h-340z" />
    <glyph glyph-name="paragraph" unicode="&#xb6;" horiz-adv-x="1435" 
d="M420 -211v938q-195 0 -314.5 99.5t-119.5 287.5q0 402 520 402h737v-242h-100v-1485h-262v1485h-199v-1485h-262z" />
    <glyph glyph-name="periodcentered" unicode="&#xb7;" horiz-adv-x="643" 
d="M500 692v-348h-355v348h355z" />
    <glyph glyph-name="cedilla" unicode="&#xb8;" 
d="M637 0l-59 -109q21 7 43 7q67 0 120.5 -48t53.5 -139q0 -85 -60.5 -149t-169.5 -64q-16 0 -34.5 2.5t-51 13.5t-58.5 30t-49 57.5t-30 89.5h156q5 -15 8.5 -21.5t11 -17t19 -15t28.5 -4.5q34 0 54 21.5t20 56.5q0 32 -20 51t-50 19q-32 0 -55 -31l-133 72l86 178h170z
" />
    <glyph glyph-name="onesuperior" unicode="&#xb9;" horiz-adv-x="833" 
d="M553 1516v-910h-252v692h-160v218h412z" />
    <glyph glyph-name="ordmasculine" unicode="&#xba;" horiz-adv-x="788" 
d="M76 1231v2q0 55 20 109t57.5 100t100 74t139.5 28t139.5 -28t100.5 -74t58 -100.5t20 -110.5t-20 -110.5t-58 -100.5t-100.5 -74t-139.5 -28t-139.5 28t-100 74t-57.5 100.5t-20 110.5zM279 1231v-2q0 -50 34 -84.5t80 -34.5q47 0 81 34.5t34 86.5t-34 86.5t-81 34.5
t-80.5 -34.5t-33.5 -86.5z" />
    <glyph glyph-name="guillemotright" unicode="&#xbb;" horiz-adv-x="864" 
d="M614 954l201 -372l-201 -373h-237l201 373l-201 372h237zM242 954l200 -372l-200 -373h-238l201 373l-201 372h238z" />
    <glyph glyph-name="onequarter" unicode="&#xbc;" horiz-adv-x="1843" 
d="M1300 1516l-636 -1516h-279l635 1516h280zM1636 909v-559h107v-192h-107v-158h-252v158h-428v176l439 575h241zM510 1516v-910h-252v692h-160v218h412zM1389 590l-162 -240h162v240z" />
    <glyph glyph-name="onehalf" unicode="&#xbd;" horiz-adv-x="1884" 
d="M510 1516v-910h-252v692h-160v218h412zM1300 1516l-636 -1516h-279l635 1516h280zM1786 217v-217h-699v199q46 38 138.5 113.5t138.5 113.5q71 59 102 103t31 94q0 86 -78 86q-27 0 -46 -14t-28 -37t-12.5 -44.5t-3.5 -44.5h-252q4 135 60 217q99 142 297 142
q171 0 259.5 -70.5t88.5 -204.5q0 -91 -29 -151.5t-102 -124.5q-31 -26 -93 -80t-92 -80h320z" />
    <glyph glyph-name="threequarters" unicode="&#xbe;" horiz-adv-x="2048" 
d="M1610 598l-172 -248h172v248zM1532 1516l-637 -1516h-279l635 1516h281zM1858 909v-559h106v-192h-106v-158h-252v158h-428v176l438 575h242zM84 887h264q4 -16 8.5 -26t15 -24t30.5 -21t49 -7q47 0 72.5 23t25.5 65q0 31 -24.5 54.5t-75.5 23.5h-113v184h49
q123 0 123 86q0 27 -15.5 47.5t-50.5 20.5q-20 0 -34.5 -5.5t-21 -12t-11 -19t-5 -17.5t-1.5 -18h-258q1 71 26.5 125.5t63 85t86 50t88 26t76.5 6.5q140 0 225.5 -75t85.5 -177q0 -125 -117 -188q79 -26 124.5 -85t45.5 -132q0 -120 -108 -204.5t-258 -84.5q-94 0 -179 33
t-129 94q-46 62 -57 172z" />
    <glyph glyph-name="questiondown" unicode="&#xbf;" horiz-adv-x="1212" 
d="M473 788v349h356v-349h-356zM473 653h356q-1 -100 -50 -175.5t-163 -184.5q-76 -74 -107.5 -125.5t-31.5 -99.5q0 -59 29.5 -93t89.5 -34q76 0 105.5 43t33.5 110q2 14 2 43h375q2 -18 2 -37q0 -221 -152 -365.5t-387 -144.5q-115 0 -210.5 39t-155.5 102.5t-92.5 139.5
t-32.5 154q0 54 14.5 105t33.5 87t55 79t60 66t68 64q95 87 124 131.5t34 95.5z" />
    <glyph glyph-name="Agrave" unicode="&#xc0;" horiz-adv-x="1552" 
d="M508 219l-70 -219h-420l600 1516h334l582 -1516h-424l-72 219h-530zM938 526l-170 529l-164 -529h334zM541 2015l495 -262l-94 -199l-506 222z" />
    <glyph glyph-name="Aacute" unicode="&#xc1;" horiz-adv-x="1552" 
d="M508 219l-70 -219h-420l600 1516h334l582 -1516h-424l-72 219h-530zM938 526l-170 529l-164 -529h334zM518 1769l492 265l108 -242l-504 -223z" />
    <glyph glyph-name="Acircumflex" unicode="&#xc2;" horiz-adv-x="1552" 
d="M508 219l-70 -219h-420l600 1516h334l582 -1516h-424l-72 219h-530zM938 526l-170 529l-164 -529h334zM893 1948l328 -340h-328l-115 116l-114 -116h-332l340 340h221z" />
    <glyph glyph-name="Atilde" unicode="&#xc3;" horiz-adv-x="1552" 
d="M508 219l-70 -219h-420l600 1516h334l582 -1516h-424l-72 219h-530zM938 526l-170 529l-164 -529h334zM1079 1952l113 -226q-120 -75 -231 -75q-23 0 -166 26q-127 27 -162 27q-79 0 -158 -49l-113 231q127 72 226 72q51 0 166 -25q102 -26 166 -26q99 0 159 45z" />
    <glyph glyph-name="Adieresis" unicode="&#xc4;" horiz-adv-x="1552" 
d="M508 219l-70 -219h-420l600 1516h334l582 -1516h-424l-72 219h-530zM938 526l-170 529l-164 -529h334zM700 1925v-309h-325v309h325zM1178 1925v-309h-326v309h326z" />
    <glyph glyph-name="Aring" unicode="&#xc5;" horiz-adv-x="1552" 
d="M508 219l-70 -219h-420l600 1516h334l582 -1516h-424l-72 219h-530zM938 526l-170 529l-164 -529h334zM776 2083h2q106 0 181 -76t75 -182t-75.5 -182t-182.5 -76t-182.5 76t-75.5 182t75.5 182t182.5 76zM776 1917h-2q-38 0 -63 -27t-25 -65q0 -37 26.5 -62.5
t63.5 -25.5t63.5 26t26.5 64q0 37 -26 63.5t-64 26.5z" />
    <glyph glyph-name="AE" unicode="&#xc6;" horiz-adv-x="1996" 
d="M-20 0l1052 1516h862v-340h-467v-236h453v-340h-453v-260h467v-340h-841v254h-441l-163 -254h-469zM770 553h283v412z" />
    <glyph glyph-name="Ccedilla" unicode="&#xc7;" horiz-adv-x="1703" 
d="M909 -27l-45 -82q21 7 43 7q62 0 118 -48.5t56 -138.5q0 -85 -60 -149t-169 -64q-16 0 -34.5 2.5t-51 13.5t-58.5 30t-49 57.5t-30 89.5h155q7 -19 12 -28.5t19.5 -19.5t36.5 -10q34 0 54 21.5t20 56.5q0 32 -20 51t-50 19q-32 0 -55 -31l-133 72l77 160
q-196 29 -350.5 144t-236.5 281t-82 353q0 116 34.5 230t103 213.5t162.5 176t222 120.5t272 44q136 0 257.5 -40t207.5 -104t152.5 -145t103 -160.5t49.5 -154.5h-405q-14 36 -34.5 71t-53.5 70.5t-72 62t-93 43.5t-114 17q-94 0 -172.5 -38.5t-128 -102t-77 -141.5
t-27.5 -160q0 -116 48 -218t143 -167.5t216 -65.5q68 0 128.5 22.5t97.5 51t70 70.5t45 64t24 48h405q-64 -259 -265 -421t-466 -173z" />
    <glyph glyph-name="Egrave" unicode="&#xc8;" horiz-adv-x="1081" 
d="M137 0v1516h858v-340h-471v-236h457v-340h-457v-260h471v-340h-858zM305 2056l496 -262l-94 -199l-506 222z" />
    <glyph glyph-name="Eacute" unicode="&#xc9;" horiz-adv-x="1081" 
d="M137 0v1516h858v-340h-471v-236h457v-340h-457v-260h471v-340h-858zM283 1810l491 265l109 -242l-504 -223z" />
    <glyph glyph-name="Ecircumflex" unicode="&#xca;" horiz-adv-x="1081" 
d="M137 0v1516h858v-340h-471v-236h457v-340h-457v-260h471v-340h-858zM657 1989l328 -340h-328l-114 116l-115 -116h-332l340 340h221z" />
    <glyph glyph-name="Edieresis" unicode="&#xcb;" horiz-adv-x="1081" 
d="M137 0v1516h858v-340h-471v-236h457v-340h-457v-260h471v-340h-858zM465 1966v-309h-326v309h326zM942 1966v-309h-326v309h326z" />
    <glyph glyph-name="Igrave" unicode="&#xcc;" horiz-adv-x="661" 
d="M137 0v1516h387v-1516h-387zM43 2056l496 -262l-95 -199l-505 222z" />
    <glyph glyph-name="Iacute" unicode="&#xcd;" horiz-adv-x="661" 
d="M137 0v1516h387v-1516h-387zM123 1810l491 265l109 -242l-504 -223z" />
    <glyph glyph-name="Icircumflex" unicode="&#xce;" horiz-adv-x="661" 
d="M137 0v1516h387v-1516h-387zM446 1989l328 -340h-328l-114 116l-115 -116h-332l340 340h221z" />
    <glyph glyph-name="Idieresis" unicode="&#xcf;" horiz-adv-x="661" 
d="M137 0v1516h387v-1516h-387zM254 1966v-309h-326v309h326zM731 1966v-309h-325v309h325z" />
    <glyph glyph-name="Eth" unicode="&#xd0;" horiz-adv-x="1519" 
d="M137 946v570h510q51 0 80.5 -0.5t88.5 -6t100 -15.5t99.5 -31t104.5 -50t96.5 -75t92.5 -105q139 -191 139 -471q0 -126 -28 -238.5t-88 -208.5t-146 -166t-208 -109.5t-269 -39.5h-572v606h-137v340h137zM524 1176v-230h221v-340h-221v-266h166q104 0 179 34t115.5 94.5
t58.5 131t18 156.5q0 164 -74 280q-93 140 -295 140h-168z" />
    <glyph glyph-name="Ntilde" unicode="&#xd1;" horiz-adv-x="1554" 
d="M471 1516l582 -924l-9 924h371v-1516h-336l-579 913l8 -913h-371v1516h334zM1079 1952l113 -226q-120 -75 -231 -75q-23 0 -166 26q-127 27 -162 27q-79 0 -158 -49l-113 231q127 72 226 72q51 0 166 -25q102 -26 166 -26q99 0 159 45z" />
    <glyph glyph-name="Ograve" unicode="&#xd2;" horiz-adv-x="1742" 
d="M72 739v2q0 181 66 334t176.5 254.5t254.5 158t301 56.5q171 0 321.5 -63.5t255 -171t164.5 -251t60 -300.5t-60 -301t-164 -251t-255.5 -171t-323.5 -64q-173 0 -324.5 65.5t-253.5 173t-160 245.5t-58 284zM459 762v-2q0 -87 29 -167.5t82 -143.5t132.5 -100.5
t174.5 -37.5q79 0 147 27.5t115 73t80.5 103.5t49 119.5t15.5 121.5q0 61 -15.5 122.5t-49.5 120.5t-81 104.5t-116 73t-150 27.5q-97 0 -177 -39t-130.5 -102.5t-78 -141.5t-27.5 -159zM635 2056l495 -262l-94 -199l-506 222z" />
    <glyph glyph-name="Oacute" unicode="&#xd3;" horiz-adv-x="1742" 
d="M72 739v2q0 181 66 334t176.5 254.5t254.5 158t301 56.5q171 0 321.5 -63.5t255 -171t164.5 -251t60 -300.5t-60 -301t-164 -251t-255.5 -171t-323.5 -64q-173 0 -324.5 65.5t-253.5 173t-160 245.5t-58 284zM459 762v-2q0 -87 29 -167.5t82 -143.5t132.5 -100.5
t174.5 -37.5q79 0 147 27.5t115 73t80.5 103.5t49 119.5t15.5 121.5q0 61 -15.5 122.5t-49.5 120.5t-81 104.5t-116 73t-150 27.5q-97 0 -177 -39t-130.5 -102.5t-78 -141.5t-27.5 -159zM612 1810l492 265l108 -242l-503 -223z" />
    <glyph glyph-name="Ocircumflex" unicode="&#xd4;" horiz-adv-x="1742" 
d="M72 739v2q0 181 66 334t176.5 254.5t254.5 158t301 56.5q171 0 321.5 -63.5t255 -171t164.5 -251t60 -300.5t-60 -301t-164 -251t-255.5 -171t-323.5 -64q-173 0 -324.5 65.5t-253.5 173t-160 245.5t-58 284zM459 762v-2q0 -87 29 -167.5t82 -143.5t132.5 -100.5
t174.5 -37.5q79 0 147 27.5t115 73t80.5 103.5t49 119.5t15.5 121.5q0 61 -15.5 122.5t-49.5 120.5t-81 104.5t-116 73t-150 27.5q-97 0 -177 -39t-130.5 -102.5t-78 -141.5t-27.5 -159zM987 1989l328 -340h-328l-115 116l-114 -116h-332l340 340h221z" />
    <glyph glyph-name="Otilde" unicode="&#xd5;" horiz-adv-x="1742" 
d="M72 739v2q0 181 66 334t176.5 254.5t254.5 158t301 56.5q171 0 321.5 -63.5t255 -171t164.5 -251t60 -300.5t-60 -301t-164 -251t-255.5 -171t-323.5 -64q-173 0 -324.5 65.5t-253.5 173t-160 245.5t-58 284zM459 762v-2q0 -87 29 -167.5t82 -143.5t132.5 -100.5
t174.5 -37.5q79 0 147 27.5t115 73t80.5 103.5t49 119.5t15.5 121.5q0 61 -15.5 122.5t-49.5 120.5t-81 104.5t-116 73t-150 27.5q-97 0 -177 -39t-130.5 -102.5t-78 -141.5t-27.5 -159zM1174 1952l112 -226q-120 -75 -231 -75q-23 0 -166 26q-127 27 -162 27
q-79 0 -158 -49l-112 231q127 72 225 72q51 0 166 -25q102 -26 166 -26q100 0 160 45z" />
    <glyph glyph-name="Odieresis" unicode="&#xd6;" horiz-adv-x="1742" 
d="M72 739v2q0 181 66 334t176.5 254.5t254.5 158t301 56.5q171 0 321.5 -63.5t255 -171t164.5 -251t60 -300.5t-60 -301t-164 -251t-255.5 -171t-323.5 -64q-173 0 -324.5 65.5t-253.5 173t-160 245.5t-58 284zM459 762v-2q0 -87 29 -167.5t82 -143.5t132.5 -100.5
t174.5 -37.5q79 0 147 27.5t115 73t80.5 103.5t49 119.5t15.5 121.5q0 61 -15.5 122.5t-49.5 120.5t-81 104.5t-116 73t-150 27.5q-97 0 -177 -39t-130.5 -102.5t-78 -141.5t-27.5 -159zM795 1966v-309h-326v309h326zM1272 1966v-309h-326v309h326z" />
    <glyph glyph-name="multiply" unicode="&#xd7;" horiz-adv-x="1228" 
d="M346 0l-231 231l266 267l-266 266l231 231l266 -266l269 268l233 -233l-268 -266l264 -267l-231 -231l-265 264z" />
    <glyph glyph-name="Oslash" unicode="&#xd8;" horiz-adv-x="1742" 
d="M1214 1473l62 83h373l-193 -258q215 -233 215 -540q0 -125 -38 -243t-109.5 -216t-168.5 -172t-223 -115t-264 -41q-178 0 -342 72l-65 -84h-373l195 260q-211 227 -211 539q0 163 61.5 308.5t167.5 250.5t254.5 166t316.5 61q189 0 342 -71zM514 528l485 656
q-50 20 -127 20q-100 0 -181.5 -40.5t-130.5 -105.5t-75 -141t-26 -153q0 -135 55 -236zM1225 991l-486 -657q66 -23 135 -23q82 0 151 28.5t116 74t80 104.5t48 119.5t15 118.5q0 125 -59 235z" />
    <glyph glyph-name="Ugrave" unicode="&#xd9;" horiz-adv-x="1429" 
d="M133 1516h387v-916q0 -118 27 -182q49 -107 170 -107q127 0 168 99q24 55 24 190v916h387v-916q0 -180 -36.5 -283t-114.5 -182q-161 -164 -424 -164q-48 0 -99 7t-112.5 23t-121 50t-103.5 82q-91 100 -121.5 197.5t-30.5 269.5v916zM408 2056l495 -262l-94 -199
l-506 222z" />
    <glyph glyph-name="Uacute" unicode="&#xda;" horiz-adv-x="1429" 
d="M133 1516h387v-916q0 -118 27 -182q49 -107 170 -107q127 0 168 99q24 55 24 190v916h387v-916q0 -180 -36.5 -283t-114.5 -182q-161 -164 -424 -164q-48 0 -99 7t-112.5 23t-121 50t-103.5 82q-91 100 -121.5 197.5t-30.5 269.5v916zM528 1810l492 265l108 -242
l-503 -223z" />
    <glyph glyph-name="Ucircumflex" unicode="&#xdb;" horiz-adv-x="1429" 
d="M133 1516h387v-916q0 -118 27 -182q49 -107 170 -107q127 0 168 99q24 55 24 190v916h387v-916q0 -180 -36.5 -283t-114.5 -182q-161 -164 -424 -164q-48 0 -99 7t-112.5 23t-121 50t-103.5 82q-91 100 -121.5 197.5t-30.5 269.5v916zM831 1989l328 -340h-328l-114 116
l-115 -116h-332l340 340h221z" />
    <glyph glyph-name="Udieresis" unicode="&#xdc;" horiz-adv-x="1429" 
d="M133 1516h387v-916q0 -118 27 -182q49 -107 170 -107q127 0 168 99q24 55 24 190v916h387v-916q0 -180 -36.5 -283t-114.5 -182q-161 -164 -424 -164q-48 0 -99 7t-112.5 23t-121 50t-103.5 82q-91 100 -121.5 197.5t-30.5 269.5v916zM639 1966v-309h-326v309h326z
M1116 1966v-309h-325v309h325z" />
    <glyph glyph-name="Yacute" unicode="&#xdd;" horiz-adv-x="1325" 
d="M471 0v551l-453 965h420l226 -609l227 609h416l-449 -965v-551h-387zM475 1810l492 265l108 -242l-504 -223z" />
    <glyph glyph-name="Thorn" unicode="&#xde;" horiz-adv-x="1302" 
d="M137 0v1516h387v-199l109 2q197 0 298 -27t169 -84q87 -72 132.5 -177t45.5 -224q0 -116 -44 -226t-116 -171q-83 -70 -178 -100.5t-264 -30.5h-152v-279h-387zM524 979v-361h142q98 0 149 23q92 41 92 160q0 113 -96 155q-53 23 -160 23h-127z" />
    <glyph glyph-name="germandbls" unicode="&#xdf;" horiz-adv-x="1421" 
d="M119 0v874q0 190 26 292t105 190q86 96 206 147t242 51q104 0 195.5 -36t153.5 -95.5t97.5 -137t35.5 -159.5q0 -48 -12 -89.5t-26 -67t-38.5 -50.5t-36.5 -34t-33 -23q131 -32 224.5 -140.5t93.5 -254.5q0 -93 -38 -183t-104.5 -161.5t-168 -115.5t-218.5 -44
q-58 0 -110 12t-85.5 26t-70.5 41.5t-53 43t-45 45.5v-131h-340zM459 971v-543h190q7 -27 15.5 -45.5t27 -45.5t52.5 -41.5t81 -14.5q85 0 136 56t51 128q0 80 -41 123q-64 67 -240 67h-133v256h70q78 0 125 43.5t47 112.5q0 76 -50.5 123t-130.5 47q-125 0 -176 -115
q-24 -57 -24 -151z" />
    <glyph glyph-name="agrave" unicode="&#xe0;" horiz-adv-x="1441" 
d="M1317 1137v-1137h-340v123q-44 -79 -136.5 -120.5t-199.5 -41.5q-131 0 -240.5 49t-181 133t-110.5 193.5t-39 232.5q0 136 46.5 251.5t125.5 192.5t182 120t217 43q126 0 210.5 -48t125.5 -112v121h340zM410 565v-2q0 -33 9.5 -69.5t31 -75t53 -69.5t80.5 -50.5
t108 -19.5q160 0 238 127q41 63 47 145q6 77 -29 149q-32 68 -95.5 113t-162.5 45q-70 0 -125.5 -27.5t-88 -71t-49.5 -93.5t-17 -101zM455 1718l495 -262l-94 -199l-506 222z" />
    <glyph glyph-name="aacute" unicode="&#xe1;" horiz-adv-x="1441" 
d="M1317 1137v-1137h-340v123q-44 -79 -136.5 -120.5t-199.5 -41.5q-131 0 -240.5 49t-181 133t-110.5 193.5t-39 232.5q0 136 46.5 251.5t125.5 192.5t182 120t217 43q126 0 210.5 -48t125.5 -112v121h340zM410 565v-2q0 -33 9.5 -69.5t31 -75t53 -69.5t80.5 -50.5
t108 -19.5q160 0 238 127q41 63 47 145q6 77 -29 149q-32 68 -95.5 113t-162.5 45q-70 0 -125.5 -27.5t-88 -71t-49.5 -93.5t-17 -101zM463 1473l491 264l109 -242l-504 -223z" />
    <glyph glyph-name="acircumflex" unicode="&#xe2;" horiz-adv-x="1441" 
d="M1317 1137v-1137h-340v123q-44 -79 -136.5 -120.5t-199.5 -41.5q-131 0 -240.5 49t-181 133t-110.5 193.5t-39 232.5q0 136 46.5 251.5t125.5 192.5t182 120t217 43q126 0 210.5 -48t125.5 -112v121h340zM410 565v-2q0 -33 9.5 -69.5t31 -75t53 -69.5t80.5 -50.5
t108 -19.5q160 0 238 127q41 63 47 145q6 77 -29 149q-32 68 -95.5 113t-162.5 45q-70 0 -125.5 -27.5t-88 -71t-49.5 -93.5t-17 -101zM807 1651l328 -340h-328l-115 116l-114 -116h-332l340 340h221z" />
    <glyph glyph-name="atilde" unicode="&#xe3;" horiz-adv-x="1441" 
d="M1317 1137v-1137h-340v123q-44 -79 -136.5 -120.5t-199.5 -41.5q-131 0 -240.5 49t-181 133t-110.5 193.5t-39 232.5q0 136 46.5 251.5t125.5 192.5t182 120t217 43q126 0 210.5 -48t125.5 -112v121h340zM410 565v-2q0 -33 9.5 -69.5t31 -75t53 -69.5t80.5 -50.5
t108 -19.5q160 0 238 127q41 63 47 145q6 77 -29 149q-32 68 -95.5 113t-162.5 45q-70 0 -125.5 -27.5t-88 -71t-49.5 -93.5t-17 -101zM1004 1614l112 -225q-122 -76 -231 -76q-23 0 -166 26q-127 27 -162 27q-79 0 -158 -49l-112 231q127 72 225 72q51 0 166 -25
q102 -26 166 -26q100 0 160 45z" />
    <glyph glyph-name="adieresis" unicode="&#xe4;" horiz-adv-x="1441" 
d="M1317 1137v-1137h-340v123q-44 -79 -136.5 -120.5t-199.5 -41.5q-131 0 -240.5 49t-181 133t-110.5 193.5t-39 232.5q0 136 46.5 251.5t125.5 192.5t182 120t217 43q126 0 210.5 -48t125.5 -112v121h340zM410 565v-2q0 -33 9.5 -69.5t31 -75t53 -69.5t80.5 -50.5
t108 -19.5q160 0 238 127q41 63 47 145q6 77 -29 149q-32 68 -95.5 113t-162.5 45q-70 0 -125.5 -27.5t-88 -71t-49.5 -93.5t-17 -101zM614 1628v-309h-325v309h325zM1092 1628v-309h-326v309h326z" />
    <glyph glyph-name="aring" unicode="&#xe5;" horiz-adv-x="1441" 
d="M1317 1137v-1137h-340v123q-44 -79 -136.5 -120.5t-199.5 -41.5q-131 0 -240.5 49t-181 133t-110.5 193.5t-39 232.5q0 136 46.5 251.5t125.5 192.5t182 120t217 43q126 0 210.5 -48t125.5 -112v121h340zM410 565v-2q0 -33 9.5 -69.5t31 -75t53 -69.5t80.5 -50.5
t108 -19.5q160 0 238 127q41 63 47 145q6 77 -29 149q-32 68 -95.5 113t-162.5 45q-70 0 -125.5 -27.5t-88 -71t-49.5 -93.5t-17 -101zM680 1745h2q106 0 181 -76t75 -182t-75.5 -182t-182.5 -76t-182.5 76t-75.5 182t75.5 182t182.5 76zM680 1579h-2q-38 0 -63 -27t-25 -65
q0 -37 26.5 -62.5t63.5 -25.5t63.5 26t26.5 64q0 37 -26 63.5t-64 26.5z" />
    <glyph glyph-name="ae" unicode="&#xe6;" horiz-adv-x="2234" 
d="M2161 463h-854q9 -59 37.5 -103t67.5 -66.5t77.5 -33t77.5 -10.5q43 0 78 9t63 28t43 33t37 38h342q-75 -176 -197 -276q-142 -119 -342 -119q-95 0 -177 40.5t-130 109.5v-113h-309v113q-50 -74 -135 -112t-193 -38q-109 0 -205 38t-162.5 100t-115 141t-71.5 162.5
t-23 162.5q0 126 43.5 238.5t119.5 194t186 129t236 47.5q99 0 193 -42.5t127 -107.5v111h309v-109q54 71 138.5 109.5t176.5 38.5q107 0 209 -42.5t181 -121.5q92 -89 143 -230.5t29 -318.5zM410 575v-2q0 -130 83 -211t205 -81q118 0 197.5 82.5t79.5 201.5q0 127 -76 209
q-81 84 -213 84q-59 0 -108 -21t-79 -53t-51 -71.5t-29.5 -74t-8.5 -63.5zM1315 688h518q-54 199 -254 199q-119 0 -195 -72q-58 -58 -69 -127z" />
    <glyph glyph-name="ccedilla" unicode="&#xe7;" horiz-adv-x="1335" 
d="M715 -33l-41 -76q21 7 43 7q62 0 118 -48.5t56 -138.5q0 -85 -60 -149t-169 -64q-16 0 -35 2.5t-51.5 13.5t-58.5 30t-49 57.5t-30 89.5h156q7 -19 12 -28.5t19.5 -19.5t36.5 -10q34 0 53.5 21.5t19.5 56.5q0 32 -19.5 51t-49.5 19q-33 0 -56 -31l-133 72l74 153
q-212 43 -347.5 209.5t-135.5 386.5q0 165 78.5 304t216.5 220t305 81q225 0 392 -134t210 -344h-344q-80 152 -246 152q-116 6 -197 -78q-73 -79 -73 -203q0 -126 75 -207t195 -81q166 0 246 151h346q-46 -192 -197 -323.5t-360 -141.5z" />
    <glyph glyph-name="egrave" unicode="&#xe8;" horiz-adv-x="1323" 
d="M1247 451h-846q10 -89 85.5 -145t177.5 -56q76 0 123.5 28t82.5 78h349q-80 -186 -232 -290q-142 -103 -323 -103q-161 0 -299.5 79t-221 218.5t-82.5 304.5q0 118 45 229t122.5 195.5t190 135.5t238.5 51q128 0 238.5 -47.5t191.5 -133.5q202 -218 160 -544zM406 709
h507q-3 23 -19 51t-44.5 58.5t-78.5 50.5t-112 20t-112 -20t-78.5 -50.5t-44 -58.5t-18.5 -51zM426 1718l496 -262l-95 -199l-505 222z" />
    <glyph glyph-name="eacute" unicode="&#xe9;" horiz-adv-x="1323" 
d="M1247 451h-846q10 -89 85.5 -145t177.5 -56q76 0 123.5 28t82.5 78h349q-80 -186 -232 -290q-142 -103 -323 -103q-161 0 -299.5 79t-221 218.5t-82.5 304.5q0 118 45 229t122.5 195.5t190 135.5t238.5 51q128 0 238.5 -47.5t191.5 -133.5q202 -218 160 -544zM406 709
h507q-3 23 -19 51t-44.5 58.5t-78.5 50.5t-112 20t-112 -20t-78.5 -50.5t-44 -58.5t-18.5 -51zM403 1473l492 264l109 -242l-504 -223z" />
    <glyph glyph-name="ecircumflex" unicode="&#xea;" horiz-adv-x="1323" 
d="M1247 451h-846q10 -89 85.5 -145t177.5 -56q76 0 123.5 28t82.5 78h349q-80 -186 -232 -290q-142 -103 -323 -103q-161 0 -299.5 79t-221 218.5t-82.5 304.5q0 118 45 229t122.5 195.5t190 135.5t238.5 51q128 0 238.5 -47.5t191.5 -133.5q202 -218 160 -544zM406 709
h507q-3 23 -19 51t-44.5 58.5t-78.5 50.5t-112 20t-112 -20t-78.5 -50.5t-44 -58.5t-18.5 -51zM778 1651l328 -340h-328l-114 116l-115 -116h-332l340 340h221z" />
    <glyph glyph-name="edieresis" unicode="&#xeb;" horiz-adv-x="1323" 
d="M1247 451h-846q10 -89 85.5 -145t177.5 -56q76 0 123.5 28t82.5 78h349q-80 -186 -232 -290q-142 -103 -323 -103q-161 0 -299.5 79t-221 218.5t-82.5 304.5q0 118 45 229t122.5 195.5t190 135.5t238.5 51q128 0 238.5 -47.5t191.5 -133.5q202 -218 160 -544zM406 709
h507q-3 23 -19 51t-44.5 58.5t-78.5 50.5t-112 20t-112 -20t-78.5 -50.5t-44 -58.5t-18.5 -51zM586 1628v-309h-326v309h326zM1063 1628v-309h-326v309h326z" />
    <glyph glyph-name="igrave" unicode="&#xec;" horiz-adv-x="585" 
d="M123 0v1137h340v-1137h-340zM14 1718l496 -262l-94 -199l-506 222z" />
    <glyph glyph-name="iacute" unicode="&#xed;" horiz-adv-x="585" 
d="M123 0v1137h340v-1137h-340zM74 1473l491 264l109 -242l-504 -223z" />
    <glyph glyph-name="icircumflex" unicode="&#xee;" horiz-adv-x="585" 
d="M123 0v1137h340v-1137h-340zM410 1651l327 -340h-327l-115 116l-115 -116h-332l340 340h222z" />
    <glyph glyph-name="idieresis" unicode="&#xef;" horiz-adv-x="585" 
d="M123 0v1137h340v-1137h-340zM217 1628v-309h-326v309h326zM694 1628v-309h-325v309h325z" />
    <glyph glyph-name="eth" unicode="&#xf0;" horiz-adv-x="1363" 
d="M686 1229l-481 -103v215l239 41q-44 25 -188 72l348 94q79 -28 195 -90l430 90v-215l-205 -33q105 -99 172 -229q45 -87 71.5 -202.5t26.5 -223.5q0 -194 -74.5 -348t-214.5 -243t-323 -89q-170 0 -309 74t-221 212t-82 314q0 113 30 210t81 166t118 118.5t142 73.5
t153 24q63 0 127.5 -23.5t112.5 -66.5q-12 29 -39 66q-23 27 -54.5 54.5t-54.5 41.5zM410 571v-2q0 -115 71.5 -200.5t204.5 -85.5q69 0 123.5 28t84.5 72t45 92t15 96q0 50 -16 99.5t-47 92.5t-83 70t-116 27q-73 0 -129 -26t-88.5 -68.5t-48.5 -92t-16 -102.5z" />
    <glyph glyph-name="ntilde" unicode="&#xf1;" horiz-adv-x="1294" 
d="M123 0v1137h317v-121q18 25 28.5 39t40 40.5t59 41t79 27t107.5 12.5q79 0 143.5 -18t107.5 -47t75.5 -70t50 -82t28.5 -89t14 -84t3 -75v-711h-340v621q0 52 -7 90.5t-25 73t-55 53t-92 18.5q-49 0 -84.5 -14t-56.5 -35.5t-33 -54.5t-16 -64t-4 -70v-618h-340zM950 1614
l113 -225q-122 -76 -232 -76q-22 0 -165 26q-127 27 -162 27q-79 0 -158 -49l-113 231q127 72 226 72q51 0 166 -25q102 -26 166 -26q99 0 159 45z" />
    <glyph glyph-name="ograve" unicode="&#xf2;" horiz-adv-x="1363" 
d="M70 569v2q0 85 23.5 169t73.5 162.5t120.5 139t172.5 96.5t222 36t222 -36t172.5 -96.5t120.5 -139t73.5 -163.5t23.5 -170t-23.5 -170t-73.5 -163.5t-120.5 -138.5t-172.5 -96t-222 -36t-222 36t-172.5 96t-120.5 138.5t-73.5 163.5t-23.5 170zM410 569v-2
q0 -121 80 -202.5t192 -81.5t192 81.5t80 204.5t-80 205t-192 82t-192 -82t-80 -205zM446 1718l496 -262l-94 -199l-506 222z" />
    <glyph glyph-name="oacute" unicode="&#xf3;" horiz-adv-x="1363" 
d="M70 569v2q0 85 23.5 169t73.5 162.5t120.5 139t172.5 96.5t222 36t222 -36t172.5 -96.5t120.5 -139t73.5 -163.5t23.5 -170t-23.5 -170t-73.5 -163.5t-120.5 -138.5t-172.5 -96t-222 -36t-222 36t-172.5 96t-120.5 138.5t-73.5 163.5t-23.5 170zM410 569v-2
q0 -121 80 -202.5t192 -81.5t192 81.5t80 204.5t-80 205t-192 82t-192 -82t-80 -205zM424 1473l491 264l109 -242l-504 -223z" />
    <glyph glyph-name="ocircumflex" unicode="&#xf4;" horiz-adv-x="1363" 
d="M70 569v2q0 85 23.5 169t73.5 162.5t120.5 139t172.5 96.5t222 36t222 -36t172.5 -96.5t120.5 -139t73.5 -163.5t23.5 -170t-23.5 -170t-73.5 -163.5t-120.5 -138.5t-172.5 -96t-222 -36t-222 36t-172.5 96t-120.5 138.5t-73.5 163.5t-23.5 170zM410 569v-2
q0 -121 80 -202.5t192 -81.5t192 81.5t80 204.5t-80 205t-192 82t-192 -82t-80 -205zM799 1651l327 -340h-327l-115 116l-115 -116h-331l340 340h221z" />
    <glyph glyph-name="otilde" unicode="&#xf5;" horiz-adv-x="1363" 
d="M70 569v2q0 85 23.5 169t73.5 162.5t120.5 139t172.5 96.5t222 36t222 -36t172.5 -96.5t120.5 -139t73.5 -163.5t23.5 -170t-23.5 -170t-73.5 -163.5t-120.5 -138.5t-172.5 -96t-222 -36t-222 36t-172.5 96t-120.5 138.5t-73.5 163.5t-23.5 170zM410 569v-2
q0 -121 80 -202.5t192 -81.5t192 81.5t80 204.5t-80 205t-192 82t-192 -82t-80 -205zM985 1614l113 -225q-122 -76 -232 -76q-23 0 -166 26q-127 27 -161 27q-79 0 -158 -49l-113 231q127 72 226 72q50 0 165 -25q102 -26 166 -26q100 0 160 45z" />
    <glyph glyph-name="odieresis" unicode="&#xf6;" horiz-adv-x="1363" 
d="M70 569v2q0 85 23.5 169t73.5 162.5t120.5 139t172.5 96.5t222 36t222 -36t172.5 -96.5t120.5 -139t73.5 -163.5t23.5 -170t-23.5 -170t-73.5 -163.5t-120.5 -138.5t-172.5 -96t-222 -36t-222 36t-172.5 96t-120.5 138.5t-73.5 163.5t-23.5 170zM410 569v-2
q0 -121 80 -202.5t192 -81.5t192 81.5t80 204.5t-80 205t-192 82t-192 -82t-80 -205zM606 1628v-309h-325v309h325zM1083 1628v-309h-325v309h325z" />
    <glyph glyph-name="divide" unicode="&#xf7;" horiz-adv-x="1228" 
d="M774 1153v-328h-321v328h321zM98 354v328h1032v-328h-1032zM774 211v-328h-321v328h321z" />
    <glyph glyph-name="oslash" unicode="&#xf8;" horiz-adv-x="1363" 
d="M987 1204h336l-174 -235q145 -174 145 -400q0 -87 -24 -173t-74.5 -164.5t-121 -138t-171.5 -95t-219 -35.5q-133 0 -248 47l-59 -78h-336l172 230q-66 75 -104.5 181t-38.5 222q0 87 23.5 172.5t73.5 165t120.5 139.5t173 96t223.5 36q132 0 248 -48zM436 442l303 408
q-36 6 -55 6q-116 0 -195 -83t-79 -204q0 -67 26 -127zM930 688l-299 -401q36 -6 51 -6q123 0 197.5 86t74.5 202q0 59 -24 119z" />
    <glyph glyph-name="ugrave" unicode="&#xf9;" horiz-adv-x="1298" 
d="M1176 1137v-1137h-318v121q-18 -25 -28.5 -38.5t-39.5 -40.5t-59 -41.5t-80 -27t-108 -12.5q-80 0 -144.5 18t-108 47t-76 70t-50 82t-28.5 89t-14 84t-3 75v711h340v-621q0 -52 7 -90t25 -73t55.5 -53.5t92.5 -18.5q61 0 102 19.5t60.5 56t27 74t7.5 87.5v619h340z
M342 1718l496 -262l-95 -199l-505 222z" />
    <glyph glyph-name="uacute" unicode="&#xfa;" horiz-adv-x="1298" 
d="M1176 1137v-1137h-318v121q-18 -25 -28.5 -38.5t-39.5 -40.5t-59 -41.5t-80 -27t-108 -12.5q-80 0 -144.5 18t-108 47t-76 70t-50 82t-28.5 89t-14 84t-3 75v711h340v-621q0 -52 7 -90t25 -73t55.5 -53.5t92.5 -18.5q61 0 102 19.5t60.5 56t27 74t7.5 87.5v619h340z
M463 1473l491 264l109 -242l-504 -223z" />
    <glyph glyph-name="ucircumflex" unicode="&#xfb;" horiz-adv-x="1298" 
d="M1176 1137v-1137h-318v121q-18 -25 -28.5 -38.5t-39.5 -40.5t-59 -41.5t-80 -27t-108 -12.5q-80 0 -144.5 18t-108 47t-76 70t-50 82t-28.5 89t-14 84t-3 75v711h340v-621q0 -52 7 -90t25 -73t55.5 -53.5t92.5 -18.5q61 0 102 19.5t60.5 56t27 74t7.5 87.5v619h340z
M766 1651l328 -340h-328l-115 116l-114 -116h-332l340 340h221z" />
    <glyph glyph-name="udieresis" unicode="&#xfc;" horiz-adv-x="1298" 
d="M1176 1137v-1137h-318v121q-18 -25 -28.5 -38.5t-39.5 -40.5t-59 -41.5t-80 -27t-108 -12.5q-80 0 -144.5 18t-108 47t-76 70t-50 82t-28.5 89t-14 84t-3 75v711h340v-621q0 -52 7 -90t25 -73t55.5 -53.5t92.5 -18.5q61 0 102 19.5t60.5 56t27 74t7.5 87.5v619h340z
M573 1628v-309h-325v309h325zM1051 1628v-309h-326v309h326z" />
    <glyph glyph-name="yacute" unicode="&#xfd;" horiz-adv-x="1175" 
d="M244 -379l180 436l-422 1080h363l231 -660l217 660h361l-570 -1516h-360zM401 1473l492 264l108 -242l-503 -223z" />
    <glyph glyph-name="thorn" unicode="&#xfe;" horiz-adv-x="1423" 
d="M121 -379v1895h340v-365v-115q30 29 51 45.5t63.5 42t98.5 38t125 12.5q117 0 213.5 -39t159 -102t106 -145t62 -165t18.5 -166q0 -163 -70.5 -299t-198.5 -216.5t-286 -80.5q-60 0 -113.5 11.5t-86.5 25.5t-66 37.5t-45 35t-31 31.5v-143v-338h-340zM1018 567v2
q0 51 -19 101t-53.5 92t-90.5 68t-124 26q-133 0 -213 -94q-74 -83 -74 -195q0 -113 76 -198q83 -90 211 -90q129 0 208 87t79 201z" />
    <glyph glyph-name="ydieresis" unicode="&#xff;" horiz-adv-x="1175" 
d="M244 -379l180 436l-422 1080h363l231 -660l217 660h361l-570 -1516h-360zM512 1628v-309h-326v309h326zM989 1628v-309h-325v309h325z" />
    <glyph glyph-name="dotlessi" unicode="&#x131;" horiz-adv-x="585" 
d="M123 0v1137h340v-1137h-340z" />
    <glyph glyph-name="Lslash" unicode="&#x141;" horiz-adv-x="997" 
d="M14 324v385l133 96v711h388v-433l223 160v-385l-223 -160v-358h448v-340h-836v420z" />
    <glyph glyph-name="lslash" unicode="&#x142;" horiz-adv-x="700" 
d="M176 463l-125 -80v352l125 80v701h340v-482l133 86v-352l-133 -86v-682h-340v463z" />
    <glyph glyph-name="OE" unicode="&#x152;" horiz-adv-x="2222" 
d="M1649 1176v-236h454v-340h-454v-260h471v-340h-844v51v49q-179 -129 -418 -129q-166 0 -313.5 63.5t-250 170t-162.5 250t-60 299.5q0 150 55 291t154 252.5t252 179t335 67.5q81 0 148.5 -12t119.5 -36t77.5 -39.5t62.5 -41.5v51v50h844v-340h-471zM459 754v-2
q0 -55 14 -113t46 -117.5t77.5 -105.5t115 -75.5t152.5 -29.5q98 0 177.5 39t129.5 104t76.5 145t26.5 165q0 186 -112.5 313t-295.5 127q-99 0 -179 -40t-128.5 -105.5t-74 -144t-25.5 -160.5z" />
    <glyph glyph-name="oe" unicode="&#x153;" horiz-adv-x="2203" 
d="M2130 463h-852q9 -93 77.5 -153t176.5 -60q56 0 101 17t67.5 36t52.5 51h348q-61 -143 -176 -248q-163 -145 -385 -145q-275 0 -426 205q-22 -28 -37.5 -45t-57 -51.5t-84.5 -54.5t-113 -37t-150 -17q-163 0 -301 78.5t-219.5 217.5t-81.5 308q0 119 43 229t120.5 195
t195.5 136t259 51q132 0 249.5 -57t176.5 -138q59 81 176.5 138t249.5 57q122 0 231.5 -47t192.5 -132q103 -104 149 -248.5t17 -285.5zM410 567v-2q0 -117 80 -201.5t196 -84.5q64 0 117 27t85.5 70t50 93t17.5 100q0 114 -77.5 201.5t-194.5 87.5q-67 0 -128.5 -32.5
t-103.5 -101t-42 -157.5zM1288 690h512q-21 92 -91.5 144.5t-164.5 52.5q-95 0 -167 -53.5t-89 -143.5z" />
    <glyph glyph-name="Scaron" unicode="&#x160;" horiz-adv-x="1173" 
d="M51 502h385q0 -62 17 -106t44 -64t51 -28.5t46 -8.5q66 0 106.5 44.5t40.5 100.5t-52 89t-245 114q-34 14 -54.5 23t-64 32t-72.5 44.5t-66 57.5t-59 74t-38 91t-16 112q0 110 47 201t123.5 147.5t169.5 87.5t190 31q67 0 133 -13.5t134.5 -47.5t120.5 -86t86 -135.5
t36 -188.5h-383l-6 36t-12 37t-23 38.5t-38.5 25t-59.5 11.5q-53 0 -93 -33.5t-40 -85.5q0 -50 49 -82t264 -129q138 -62 217.5 -131t108 -139.5t28.5 -163.5q0 -76 -16 -144t-55 -131.5t-97.5 -109.5t-151 -73.5t-208.5 -27.5t-210 27t-157.5 74.5t-105.5 114.5
t-59.5 145.5t-14.5 169.5zM141 1974h330l115 -116l114 116h330l-338 -340h-221z" />
    <glyph glyph-name="scaron" unicode="&#x161;" horiz-adv-x="1021" 
d="M940 817h-334q-1 15 -3.5 25t-12 26.5t-32.5 25.5t-58 9q-49 0 -73 -24t-24 -52q0 -35 47 -61.5t128 -50.5q42 -11 65 -18t62 -20t62 -23.5t55.5 -28t51.5 -35t40.5 -42.5t33 -52t19.5 -62.5t8 -75.5q0 -121 -63.5 -213t-168 -138t-231.5 -46q-56 0 -111.5 10t-116.5 37
t-108.5 68t-82.5 108.5t-44 153.5h338q4 -29 18 -50.5t29 -31.5t35 -16t29 -6.5t18 -0.5q46 0 82.5 25t36.5 64q0 17 -4.5 29.5t-18 24t-27 20t-42.5 20.5t-54 21t-71 25.5t-84 31.5q-120 38 -195.5 113t-75.5 184q0 114 61.5 203.5t161 135.5t218.5 46q50 0 100.5 -8
t109 -32.5t104 -62.5t80 -104t42.5 -152zM66 1636h329l115 -116l115 116h329l-338 -340h-221z" />
    <glyph glyph-name="Ydieresis" unicode="&#x178;" horiz-adv-x="1325" 
d="M471 0v551l-453 965h420l226 -609l227 609h416l-449 -965v-551h-387zM586 1966v-309h-326v309h326zM1063 1966v-309h-326v309h326z" />
    <glyph glyph-name="Zcaron" unicode="&#x17d;" horiz-adv-x="1021" 
d="M989 1202l-483 -862h483v-340h-956v254l522 922h-522v340h956v-314zM76 1954h330l114 -117l115 117h330l-338 -340h-221z" />
    <glyph glyph-name="zcaron" unicode="&#x17e;" horiz-adv-x="909" 
d="M31 0v233l479 646h-479v258h846v-258l-445 -621h445v-258h-846zM49 1626h330l115 -117l114 117h330l-338 -340h-221z" />
    <glyph glyph-name="florin" unicode="&#x192;" horiz-adv-x="1265" 
d="M868 1079h150v-256h-195l-110 -643q-20 -107 -32 -160t-41.5 -123.5t-72.5 -125.5q-78 -96 -191 -142.5t-229 -46.5q-73 0 -110 12l53 304q32 -4 37 -4q50 0 87.5 12t61 31t40 52t25 65t17.5 81l117 688h-147v256h192q14 111 51.5 189.5t100.5 144.5q128 131 342 131
q57 0 86 -6l-45 -272q-34 0 -58 -6q-62 -14 -94 -66q-20 -34 -35 -115z" />
    <glyph glyph-name="circumflex" unicode="&#x2c6;" 
d="M684 1651l328 -340h-328l-115 116l-114 -116h-332l340 340h221z" />
    <glyph glyph-name="caron" unicode="&#x2c7;" 
d="M123 1636h330l114 -116l115 116h330l-338 -340h-221z" />
    <glyph glyph-name="uni02C9" unicode="&#x2c9;" 
d="M936 1606v-258h-735v258h735z" />
    <glyph glyph-name="breve" unicode="&#x2d8;" 
d="M145 1614h252q39 -45 76 -58q38 -14 105 -14q38 0 86.5 16t72.5 56h252q-6 -79 -46.5 -141.5t-102 -99t-131.5 -55t-142 -18.5q-175 0 -292.5 85.5t-129.5 228.5z" />
    <glyph glyph-name="dotaccent" unicode="&#x2d9;" 
d="M731 1628v-309h-325v309h325z" />
    <glyph glyph-name="ring" unicode="&#x2da;" 
d="M567 1745h2q106 0 181 -76t75 -182t-75.5 -182t-182.5 -76t-182.5 76t-75.5 182t75.5 182t182.5 76zM567 1579h-2q-38 0 -63 -27t-25 -65q0 -37 26.5 -62.5t63.5 -25.5t63.5 26t26.5 64q0 37 -26 63.5t-64 26.5z" />
    <glyph glyph-name="ogonek" unicode="&#x2db;" 
d="M528 0h172q-116 -63 -116 -139q0 -39 29.5 -69t68.5 -30q32 0 96 25v-176q-105 -33 -176 -33q-117 0 -180.5 57.5t-63.5 141.5q0 57 36.5 107t133.5 116z" />
    <glyph glyph-name="tilde" unicode="&#x2dc;" 
d="M870 1614l113 -225q-122 -76 -231 -76q-23 0 -166 26q-127 27 -162 27q-79 0 -158 -49l-112 231q127 72 225 72q51 0 166 -25q102 -26 166 -26q99 0 159 45z" />
    <glyph glyph-name="hungarumlaut" unicode="&#x2dd;" 
d="M162 1434l295 307l194 -195l-323 -278zM653 1434l295 307l195 -195l-324 -278z" />
    <glyph glyph-name="uni03A9" unicode="&#x3a9;" horiz-adv-x="1591" 
d="M362 276v7q-110 100 -185 245t-75 326q0 135 49.5 259t138.5 219t221.5 151.5t287.5 56.5q132 0 245.5 -41t192.5 -108.5t135.5 -155t83.5 -181t27 -186.5q0 -183 -75.5 -333t-190.5 -252v-7h296v-276h-630v205q245 153 245 590q0 131 -37 234t-112.5 164.5t-179.5 61.5
q-154 0 -248 -131t-94 -344q0 -215 69.5 -365.5t175.5 -209.5v-205h-630v276h290z" />
    <glyph glyph-name="uni03BC" unicode="&#x3bc;" horiz-adv-x="1298" 
d="M106 -389v1526h340v-562q0 -127 41 -202q52 -92 160 -92t160 92q43 74 43 202v562h340v-1137h-324v141q-10 -23 -24 -45t-40 -51t-65 -47t-86 -18q-137 0 -205 110v-98v-381h-340z" />
    <glyph glyph-name="pi" unicode="&#x3c0;" horiz-adv-x="1388" 
d="M1339 856h-145v-524q0 -207 27 -332h-338q-39 69 -39 317v539h-256q-7 -189 -43 -445t-88 -411h-340q52 193 89.5 444.5t37.5 411.5q-128 0 -205 -18l-37 225q95 82 393 82h971z" />
    <glyph glyph-name="endash" unicode="&#x2013;" horiz-adv-x="1024" 
d="M72 758h880v-334h-880v334z" />
    <glyph glyph-name="emdash" unicode="&#x2014;" horiz-adv-x="2048" 
d="M72 758h1904v-334h-1904v334z" />
    <glyph glyph-name="quoteleft" unicode="&#x2018;" horiz-adv-x="643" 
d="M467 1516l172 -512h-246l-217 512h291z" />
    <glyph glyph-name="quoteright" unicode="&#x2019;" horiz-adv-x="643" 
d="M4 1004l172 512h291l-217 -512h-246z" />
    <glyph glyph-name="quotesinglbase" unicode="&#x201a;" horiz-adv-x="643" 
d="M4 -209l172 512h291l-217 -512h-246z" />
    <glyph glyph-name="quotedblleft" unicode="&#x201c;" 
d="M543 1516l172 -512h-246l-217 512h291zM922 1516l172 -512h-246l-217 512h291z" />
    <glyph glyph-name="quotedblright" unicode="&#x201d;" 
d="M43 1004l172 512h291l-217 -512h-246zM422 1004l172 512h291l-217 -512h-246z" />
    <glyph glyph-name="quotedblbase" unicode="&#x201e;" 
d="M43 -209l172 512h291l-217 -512h-246zM422 -209l172 512h291l-217 -512h-246z" />
    <glyph glyph-name="dagger" unicode="&#x2020;" horiz-adv-x="1372" 
d="M856 1516v-363h315v-287h-315v-1366h-338v1366h-317v287h317v363h338z" />
    <glyph glyph-name="daggerdbl" unicode="&#x2021;" horiz-adv-x="1372" 
d="M856 1516v-302h315v-286h-315v-668h315v-287h-315v-473h-338v473h-317v287h317v668h-317v286h317v302h338z" />
    <glyph glyph-name="bullet" unicode="&#x2022;" horiz-adv-x="1513" 
d="M760 1090h2q126 0 216.5 -93.5t90.5 -224.5q0 -132 -91.5 -224.5t-219.5 -92.5q-130 0 -222 93.5t-92 223.5q0 129 91 223.5t225 94.5z" />
    <glyph glyph-name="ellipsis" unicode="&#x2026;" horiz-adv-x="2048" 
d="M166 0v348h354v-348h-354zM848 0v348h354v-348h-354zM1530 0v348h354v-348h-354z" />
    <glyph glyph-name="perthousand" unicode="&#x2030;" horiz-adv-x="2576" 
d="M74 1176v2q0 152 108 260t260 108q154 0 261.5 -108t107.5 -262q0 -153 -108 -261t-261 -108q-151 0 -259.5 108t-108.5 261zM301 1176v-2q0 -56 41.5 -98t99.5 -42q57 0 99.5 42t42.5 102t-41.5 100.5t-100.5 40.5t-100 -41t-41 -102zM944 340v2q0 152 108.5 260.5
t262.5 108.5q152 0 260 -108.5t108 -262.5t-109 -262.5t-259 -108.5q-152 0 -261.5 108t-109.5 263zM1171 340v-2q0 -57 42 -99t102 -42q57 0 99 41.5t42 101.5q0 61 -41.5 102t-99.5 41q-61 0 -102.5 -42t-41.5 -101zM1763 340v2q0 152 108.5 260.5t262.5 108.5
q152 0 260.5 -108.5t108.5 -262.5t-109.5 -262.5t-259.5 -108.5q-152 0 -261.5 108t-109.5 263zM1991 340v-2q0 -58 41.5 -99.5t101.5 -41.5q58 0 99.5 41.5t41.5 101.5q0 61 -41.5 102t-99.5 41q-61 0 -102 -42t-41 -101zM1307 1516l-629 -1516h-236l627 1516h238z" />
    <glyph glyph-name="guilsinglleft" unicode="&#x2039;" horiz-adv-x="454" 
d="M16 582l201 372h238l-201 -372l201 -373h-238z" />
    <glyph glyph-name="guilsinglright" unicode="&#x203a;" horiz-adv-x="454" 
d="M238 954l200 -372l-200 -373h-238l201 373l-201 372h238z" />
    <glyph glyph-name="fraction" unicode="&#x2044;" horiz-adv-x="432" 
d="M-242 0l635 1516h281l-637 -1516h-279z" />
    <glyph glyph-name="Euro" unicode="&#x20ac;" horiz-adv-x="1265" 
d="M944 715l-37 -197h-332q40 -207 173 -207q102 0 139 123h336q-36 -267 -201 -383q-114 -80 -287 -80q-97 0 -177 27t-137.5 75t-100.5 117.5t-69 150t-40 177.5h-191l37 197h138v43v47h-175l37 196h158q20 116 59.5 210.5t101.5 171t155.5 119t211.5 42.5
q112 0 201.5 -40t145 -107.5t87.5 -144t44 -162.5h-336q-16 49 -54.5 81.5t-87.5 32.5q-26 0 -48 -7.5t-46 -27.5t-43 -62.5t-31 -105.5h422l-36 -196h-404v-47v-43h387z" />
    <glyph glyph-name="afii61289" unicode="&#x2113;" horiz-adv-x="1198" 
d="M1022 446l137 -145q-169 -324 -497 -324q-129 0 -220 45.5t-137 116.5t-65 168q0 15 -2 21q-12 -8 -49 -36t-58 -42l-84 176q23 18 61.5 48t69 54t55.5 47v510q0 282 119.5 430t313.5 148q168 0 253 -113t85 -290q0 -181 -110 -358t-325 -376l2 -92q3 -83 50.5 -131.5
t123.5 -48.5q77 0 149 54.5t128 137.5zM569 1102v-271q99 114 158 232.5t59 208.5q0 151 -100 151q-23 0 -42.5 -15t-37 -49t-27.5 -99.5t-10 -157.5z" />
    <glyph glyph-name="trademark" unicode="&#x2122;" horiz-adv-x="2027" 
d="M791 606v910h325l182 -568l177 568h325v-910h-239v617l-179 -617h-172l-180 613v-613h-239zM229 606v692h-186v218h629v-218h-185v-692h-258z" />
    <glyph glyph-name="Omega" unicode="&#x2126;" horiz-adv-x="1591" 
d="M362 276v7q-110 100 -185 245t-75 326q0 135 49.5 259t138.5 219t221.5 151.5t287.5 56.5q132 0 245.5 -41t192.5 -108.5t135.5 -155t83.5 -181t27 -186.5q0 -183 -75.5 -333t-190.5 -252v-7h296v-276h-630v205q245 153 245 590q0 131 -37 234t-112.5 164.5t-179.5 61.5
q-154 0 -248 -131t-94 -344q0 -215 69.5 -365.5t175.5 -209.5v-205h-630v276h290z" />
    <glyph glyph-name="estimated" unicode="&#x212e;" horiz-adv-x="1896" 
d="M1821 735h-1415q-11 0 -11 -8v-428q0 -27 19 -49q106 -109 244 -171.5t290 -62.5q165 0 311.5 69.5t251.5 190.5h125q-120 -139 -301.5 -221t-388.5 -82q-237 0 -437.5 105t-317.5 286t-117 394q0 160 69 305.5t186 250.5t278.5 167.5t338.5 62.5q178 0 340 -62.5
t279 -167.5t186.5 -250.5t69.5 -305.5v-23zM1499 793v430q0 31 -20 51q-106 104 -243 163.5t-288 59.5t-288.5 -61.5t-243.5 -169.5q-21 -21 -21 -54v-419q0 -5 3.5 -10t7.5 -5h1085q8 0 8 15z" />
    <glyph glyph-name="partialdiff" unicode="&#x2202;" horiz-adv-x="1323" 
d="M229 1331l-92 254q181 129 434 129q134 0 251 -55t206.5 -157.5t141 -262t51.5 -356.5q0 -415 -178 -658t-480 -243q-80 0 -151 23t-123 62.5t-93.5 91t-67 110.5t-39 118.5t-13.5 116.5q0 258 138 416.5t351 158.5q61 0 116.5 -17t94 -44t64 -52t39.5 -48h2q2 14 2 59
q0 83 -24.5 164t-68.5 146.5t-113.5 106t-152.5 40.5q-158 0 -295 -103zM598 264h2q67 0 123.5 63.5t86.5 148.5t40 173q-6 22 -22 48t-42 51.5t-65 42t-82 16.5q-98 0 -159.5 -94t-61.5 -221q0 -95 51 -161.5t129 -66.5z" />
    <glyph glyph-name="Delta" unicode="&#x2206;" horiz-adv-x="1486" 
d="M51 0v188l492 1356h418l471 -1349v-195h-1381zM416 274h639l-203 543q-15 57 -58 193.5t-55 181.5h-6q-9 -36 -48.5 -160.5t-55.5 -183.5z" />
    <glyph glyph-name="product" unicode="&#x220f;" horiz-adv-x="1640" 
d="M1589 1206h-221v-1415h-344v1415h-410v-1415h-344v1415h-219v310h1538v-310z" />
    <glyph glyph-name="summation" unicode="&#x2211;" horiz-adv-x="1261" 
d="M1225 -209h-1174v211l508 651l-491 625v238h1118v-291h-654v-6l416 -510l-467 -598v-7h744v-313z" />
    <glyph glyph-name="minus" unicode="&#x2212;" horiz-adv-x="1228" 
d="M98 354v328h1032v-328h-1032z" />
    <glyph glyph-name="uni2215" unicode="&#x2215;" horiz-adv-x="432" 
d="M-242 0l635 1516h281l-637 -1516h-279z" />
    <glyph glyph-name="uni2219" unicode="&#x2219;" horiz-adv-x="643" 
d="M500 692v-348h-355v348h355z" />
    <glyph glyph-name="radical" unicode="&#x221a;" horiz-adv-x="1353" 
d="M1386 1825l-509 -2122h-269l-323 922l-164 -68l-55 184l421 172l207 -634q7 -28 24.5 -100t24.5 -103l5 -2q24 156 36 223l365 1528h237z" />
    <glyph glyph-name="infinity" unicode="&#x221e;" horiz-adv-x="1716" 
d="M1614 627v-4q0 -91 -31 -168t-82.5 -126t-116.5 -76.5t-135 -27.5q-102 0 -196 52.5t-193 191.5q-63 -79 -116 -128.5t-127 -82.5t-158 -33q-145 0 -252 108t-107 277q0 175 108 284.5t271 109.5q117 0 208.5 -58t180.5 -176q5 6 25 28.5l28 31.5t29.5 31t33.5 32
t35 28.5t40.5 28t42.5 22t48.5 18.5t52 10t57.5 4q150 -2 252 -105.5t102 -271.5zM479 406h4q41 0 79 15t75 47.5t62 60t63 73.5q-78 112 -114 148q-77 77 -173 77q-87 0 -138.5 -59t-53.5 -158q0 -84 57.5 -144t138.5 -60zM1243 827h-2q-26 0 -51 -6t-49.5 -22t-41.5 -27.5
t-42 -38t-34.5 -37t-35 -42t-29.5 -36.5q95 -125 156 -168.5t139 -43.5q80 0 128.5 65t48.5 139q0 93 -51.5 155t-135.5 62z" />
    <glyph glyph-name="integral" unicode="&#x222b;" horiz-adv-x="917" 
d="M866 1862l-30 -230q-49 17 -80 17q-71 0 -111 -60q-30 -40 -40.5 -124t-10.5 -226q0 -174 16.5 -489t16.5 -525q0 -287 -74 -432q-32 -64 -85.5 -106t-111.5 -59t-123 -17q-114 0 -186 35l39 239q58 -20 94 -20q66 0 96 41q54 72 54 315q0 212 -17.5 538t-17.5 513
q0 194 33 311t108 197q49 53 125.5 79.5t161.5 26.5q89 0 143 -24z" />
    <glyph glyph-name="approxequal" unicode="&#x2248;" horiz-adv-x="1214" 
d="M1018 1012l117 -113q-60 -108 -142 -170.5t-170 -62.5q-65 0 -116 18.5t-127 65.5q-40 26 -62 38.5t-55.5 23.5t-67.5 11t-63 -11.5t-57 -39.5t-41.5 -45.5t-43.5 -58.5l-116 112q52 100 142 166t192 66q49 0 96.5 -14.5t68 -25.5t62.5 -36q9 -5 32.5 -19.5t30.5 -18.5
t24.5 -13.5t26 -12.5t22.5 -8t25.5 -6.5t24.5 -1.5q57 0 101.5 39.5t95.5 116.5zM1018 582l117 -113q-60 -108 -142 -170.5t-172 -62.5q-62 0 -114 20t-127 66q-3 2 -19 11.5t-20 12t-17.5 10.5t-18 10t-17 8t-18.5 7.5t-17 5t-19 5t-18.5 2.5t-20.5 1q-28 0 -53.5 -10
t-42.5 -21t-40.5 -37.5t-33.5 -40t-35 -48.5l-116 112q52 100 143 166t191 66q49 0 96 -13.5t69.5 -25t61.5 -35.5q15 -9 46.5 -28.5t47 -28t41 -17t49.5 -8.5q59 0 101 37t98 119z" />
    <glyph glyph-name="notequal" unicode="&#x2260;" horiz-adv-x="1214" 
d="M909 1128l-80 -180h281v-192h-352l-121 -283h473v-192h-547l-106 -246l-152 61l80 185h-283v192h357l121 283h-478v192h551l105 242z" />
    <glyph glyph-name="lessequal" unicode="&#x2264;" horiz-adv-x="1214" 
d="M1106 225l-993 486v209l991 483v-219l-801 -367v-4l803 -367v-221zM1114 -47h-1008v197h1008v-197z" />
    <glyph glyph-name="greaterequal" unicode="&#x2265;" horiz-adv-x="1214" 
d="M117 1403l993 -485v-207l-991 -486v221l801 367v6l-803 365v219zM1108 -47h-999v197h999v-197z" />
    <glyph glyph-name="lozenge" unicode="&#x25ca;" horiz-adv-x="1351" 
d="M1247 756l-442 -867h-273l-428 867l441 868h274zM946 748l-223 473q-34 87 -41 133h-8q-12 -51 -43 -133l-225 -459l227 -481q28 -83 37 -125h10q22 89 37 120z" />
    </font>
</defs>
</svg>
