<?xml version="1.0" standalone="no"?>
<!DOCTYPE svg PUBLIC "-//W3C//DTD SVG 1.1//EN" "http://www.w3.org/Graphics/SVG/1.1/DTD/svg11.dtd" >
<svg xmlns="http://www.w3.org/2000/svg" xmlns:xlink="http://www.w3.org/1999/xlink" version="1.1">
<metadata>
Created by FontForge 20170731 at Fri Aug 27 17:58:36 2021
 By Aleksey,,,
(c) 1993, 1994, 2001, 2002 Adobe Systems Incorporated. All rights reserved.
</metadata>
<defs>
<font id="ITCAvantGardeStd-DemiObl" horiz-adv-x="1232" >
  <font-face 
    font-family="ITC Avant Garde Std Bk"
    font-weight="600"
    font-style="italic"
    font-stretch="normal"
    units-per-em="2048"
    panose-1="2 11 7 2 2 2 2 2 2 4"
    ascent="1638"
    descent="-410"
    x-height="1124"
    cap-height="1516"
    bbox="-252 -590 2492.94 2044"
    underline-thickness="102"
    underline-position="-307"
    slope="-10.5"
    unicode-range="U+0020-FB02"
  />
<missing-glyph horiz-adv-x="1288" 
d="M264 0v1434h1024v-1434h-1024zM776 809l348 522h-696zM838 717l348 -522v1044zM428 102h696l-348 523zM367 1239v-1044l348 522z" />
    <glyph glyph-name="f_i" unicode="fi" horiz-adv-x="1124" 
d="M893 918h-305l-170 -918h-268l169 918h-139l39 206h139l11 64q13 69 39 124.5t56.5 92t73.5 63t81 41t89.5 22.5t88 10t86.5 3l-39 -207q-29 0 -45.5 -1t-47 -9t-49.5 -23.5t-38 -47t-27 -76.5l-10 -56h573l-209 -1124h-268zM1227 1276h-269l46 240h268z" />
    <glyph glyph-name="f_l" unicode="fl" horiz-adv-x="1124" 
d="M893 918h-305l-170 -918h-268l169 918h-139l39 206h139l11 64q13 69 39 124.5t56.5 92t73.5 63t81 41t89.5 22.5t88 10t86.5 3l-39 -207q-29 0 -45.5 -1t-47 -9t-49.5 -23.5t-38 -47t-27 -76.5l-10 -56h305l72 389h268l-281 -1513h-268z" />
    <glyph glyph-name=".notdef" horiz-adv-x="1288" 
d="M264 0v1434h1024v-1434h-1024zM776 809l348 522h-696zM838 717l348 -522v1044zM428 102h696l-348 523zM367 1239v-1044l348 522z" />
    <glyph glyph-name=".null" horiz-adv-x="0" 
 />
    <glyph glyph-name="nonmarkingreturn" horiz-adv-x="682" 
 />
    <glyph glyph-name="space" unicode=" " horiz-adv-x="616" 
 />
    <glyph glyph-name="exclam" unicode="!" horiz-adv-x="643" 
d="M741 1516l-194 -1057h-277l195 1057h276zM516 303l-55 -303h-277l56 303h276z" />
    <glyph glyph-name="quotedbl" unicode="&#x22;" horiz-adv-x="880" 
d="M537 909h-205l112 607h205zM887 909h-207l113 607h206z" />
    <glyph glyph-name="numbersign" unicode="#" 
d="M944 494l-129 -392h-184l127 392h-195l-127 -392h-186l127 392h-230l56 182h233l60 182h-232l55 182h234l117 357h186l-115 -357h193l115 357h188l-117 -357h248l-55 -182h-252l-60 -182h248l-55 -182h-250zM817 676l60 182h-193l-61 -182h194z" />
    <glyph glyph-name="dollar" unicode="$" 
d="M1044 1661l-34 -197q130 -28 190.5 -127.5t34.5 -246.5h-252q8 72 -28.5 118.5t-100.5 46.5q-65 0 -119.5 -46t-66.5 -113q-9 -47 3 -81.5t50.5 -61.5t79 -45t113.5 -46h1q98 -39 158 -103.5t79 -136.5t5 -151q-26 -138 -134.5 -253t-274.5 -161l-37 -202h-224l37 202
q-65 9 -117 37t-84 67.5t-53 89.5t-23 103t5 107h276q-12 -86 29.5 -139.5t112.5 -53.5q72 0 131 52t71 122q8 42 -4.5 78.5t-34.5 60t-64 47.5t-74 36.5t-85 31.5q-273 95 -221 371q16 85 55.5 155.5t95 117.5t117 78t129.5 46l35 197h223z" />
    <glyph glyph-name="percent" unicode="%" horiz-adv-x="1685" 
d="M285 1184v2q28 150 152.5 254t275.5 104q152 0 236.5 -104t56.5 -256q-28 -151 -151.5 -256t-274.5 -105q-150 0 -236.5 105.5t-58.5 255.5zM471 1184v-2q-14 -72 27 -123t114 -51t134.5 51t74.5 127q14 75 -27 125.5t-116 50.5q-74 0 -134 -51t-73 -127zM958 332v2
q28 149 153.5 253.5t277.5 104.5q151 0 235.5 -104.5t56.5 -255.5t-153.5 -256t-274.5 -105q-151 0 -237.5 104.5t-57.5 256.5zM1145 332v-2q-14 -74 27 -125t116 -51q74 0 134 51.5t73 126.5q13 76 -27 127t-114 51q-76 0 -135.5 -51.5t-73.5 -126.5zM1569 1516l-985 -1516
h-195l985 1516h195z" />
    <glyph glyph-name="ampersand" unicode="&#x26;" horiz-adv-x="1533" 
d="M1327 907h283l-342 -479l219 -276l-217 -181l-189 240q-172 -240 -473 -240q-153 0 -259.5 60t-149 158t-19.5 217q15 83 57 154t105.5 125t112 85.5t116.5 67.5q-65 85 -90 164t-8 167q29 157 163.5 266t299.5 109t254 -105.5t61 -256.5q-11 -57 -37.5 -108.5t-56 -85.5
t-73.5 -67.5t-72.5 -50.5t-69.5 -39l180 -225zM897 1323h-2q-56 0 -102 -40t-56 -99q-15 -84 71 -195q5 -7 7 -10q87 49 133 94t58 111q11 58 -18.5 98.5t-90.5 40.5zM936 387l-229 285q-201 -98 -230 -240q-15 -89 39.5 -146t151.5 -57q89 0 151 40.5t117 117.5z" />
    <glyph glyph-name="quotesingle" unicode="'" horiz-adv-x="485" 
d="M514 909h-207l113 607h207z" />
    <glyph glyph-name="parenleft" unicode="(" horiz-adv-x="944" 
d="M1149 1544l-55 -299q-84 -38 -169 -106t-163.5 -161.5t-139 -218.5t-85.5 -261q-34 -180 -0.5 -329.5t107 -254t173.5 -158.5l-55 -303q-112 46 -202.5 115.5t-152 152.5t-103 178t-59.5 196.5t-18 203.5t19 203q23 120 71.5 241.5t128 243t180 226t236 192t287.5 139.5z
" />
    <glyph glyph-name="parenright" unicode=")" horiz-adv-x="944" 
d="M-18 -547l55 299q84 39 169 107.5t163 161.5t138 218t85 261q34 180 0 329.5t-107.5 254t-173.5 159.5l58 301q112 -46 202.5 -115.5t151.5 -152.5t102.5 -177.5t59.5 -196t17.5 -203.5t-19.5 -203q-23 -120 -71.5 -242t-127.5 -243.5t-180 -226t-235.5 -192
t-286.5 -139.5z" />
    <glyph glyph-name="asterisk" unicode="*" horiz-adv-x="1323" 
d="M1032 1516l-104 -297l270 188l57 -156l-292 -102l258 -102l-125 -164l-199 194v-297h-180l104 301l-266 -198l-63 164l294 104l-258 98l117 158l203 -188l4 297h180z" />
    <glyph glyph-name="plus" unicode="+" horiz-adv-x="1228" 
d="M936 1034l-72 -387h385l-49 -260h-385l-72 -387h-258l72 387h-385l49 260h385l72 387h258z" />
    <glyph glyph-name="comma" unicode="," horiz-adv-x="624" 
d="M508 303l-270 -463h-226l215 463h281z" />
    <glyph glyph-name="hyphen" unicode="-" horiz-adv-x="567" 
d="M133 717h567l-49 -264h-567z" />
    <glyph glyph-name="period" unicode="." horiz-adv-x="624" 
d="M508 303l-55 -303h-281l55 303h281z" />
    <glyph glyph-name="slash" unicode="/" horiz-adv-x="1175" 
d="M106 -205l906 1721h299l-903 -1721h-302z" />
    <glyph glyph-name="zero" unicode="0" 
d="M168 524l86 463q17 91 52 168.5t80 133.5t99.5 101t110 73t113 47t105.5 26.5t91 7.5q56 0 112 -12.5t114 -40t103 -70.5t78.5 -104.5t42 -142t-8.5 -183.5l-89 -467q-22 -119 -76 -216t-121.5 -158t-148.5 -103t-154.5 -59t-140.5 -17q-56 0 -112.5 12t-115 39
t-104.5 70t-81 104.5t-43 143t8 184.5zM561 997l-88 -481q-12 -51 -5 -100.5t27 -88.5t63.5 -63t103.5 -24q61 0 113.5 26t87.5 68.5t57.5 88.5t31.5 93l88 483q6 31 7 62.5t-7 71.5t-27.5 70.5t-61.5 51.5t-101 21q-61 0 -113 -24.5t-86.5 -65.5t-57 -89t-32.5 -100z" />
    <glyph glyph-name="one" unicode="1" 
d="M487 0l234 1257h-270l47 259h575l-280 -1516h-306z" />
    <glyph glyph-name="two" unicode="2" 
d="M109 0l45 240q86 67 258 198.5t258 198.5q58 44 86 66t73.5 60t69.5 65.5t52.5 64.5t44 75.5t24.5 80.5q20 109 -30.5 168t-147.5 59q-104 0 -171.5 -81t-92.5 -208h-293q51 223 172 354q54 60 119.5 103t129.5 63t115.5 28.5t98.5 8.5q93 0 169 -25t125.5 -68.5
t82 -102.5t38.5 -128t-6 -145q-26 -133 -100 -238.5t-230 -232.5q-62 -51 -205.5 -167t-220.5 -179h613l-47 -258h-1030z" />
    <glyph glyph-name="three" unicode="3" 
d="M637 1104h-301q20 95 66 172t104 126t127.5 82t134.5 46.5t127 13.5q195 0 298 -115.5t73 -283.5q-39 -206 -262 -318q61 -22 106.5 -55.5t68.5 -71t36.5 -73.5t14.5 -73.5t-0.5 -61.5t-6.5 -46q-24 -132 -116.5 -241.5t-227 -171.5t-281.5 -62q-132 0 -244 52.5
t-161 150.5q-61 109 -37 275h307q-8 -81 40 -144.5t152 -64.5q106 0 177.5 65t89.5 164q10 54 -5.5 97t-49.5 68.5t-76.5 38.5t-88.5 13h-122l43 227h67q55 0 108.5 19.5t97.5 64t56 105.5q13 73 -19 123.5t-102 50.5q-46 0 -82 -16.5t-58 -44.5t-34.5 -55t-19.5 -56z" />
    <glyph glyph-name="four" unicode="4" 
d="M725 0l51 274h-700l41 224l891 1018h290l-184 -1002h164l-45 -240h-164l-51 -274h-293zM430 514h410l116 631z" />
    <glyph glyph-name="five" unicode="5" 
d="M530 1516h799l-47 -259h-563l-109 -299q32 19 57.5 30.5t76.5 22.5t112 11q83 0 152.5 -22t116 -60t82 -88.5t50.5 -107t20.5 -115.5t-7.5 -115q-14 -76 -51 -152t-97 -146.5t-135.5 -125t-175 -87t-207.5 -32.5q-219 0 -350 124t-125 321h307q9 -77 69 -126.5t142 -49.5
q108 0 202 79t114 187q19 108 -41.5 187t-178.5 79q-154 0 -262 -143l-237 61z" />
    <glyph glyph-name="six" unicode="6" 
d="M864 1516h353l-359 -400q-14 -16 -41.5 -46.5t-40.5 -45.5q14 7 53.5 15t71.5 8q88 0 166.5 -34t136 -96t81.5 -162t1 -220q-29 -160 -129.5 -290.5t-243 -202t-297.5 -71.5q-139 0 -246 51.5t-163 145.5q-34 50 -52 116t-17.5 128t9.5 123q21 109 76 204.5t137 194.5z
M444 510v-2q-23 -118 41 -193t172 -75q114 0 206 77t114 191t-41 192t-178 78q-106 0 -199 -74t-115 -194z" />
    <glyph glyph-name="seven" unicode="7" 
d="M426 1516h940l-43 -236l-805 -1280h-336l822 1257h-625z" />
    <glyph glyph-name="eight" unicode="8" 
d="M350 1139v2q14 76 58.5 147t113.5 128.5t168.5 92.5t212.5 35t199.5 -34.5t133.5 -92t65 -129.5t4 -149q-21 -110 -84.5 -183.5t-137.5 -115.5q100 -49 136.5 -148t13.5 -225q-41 -214 -217 -355t-406 -141q-229 0 -352.5 141t-85.5 355q26 128 98 226t191 147
q-20 15 -37 32t-36.5 44.5t-29 59t-14.5 74t6 89.5zM643 1114v-2q-13 -74 30.5 -126t117.5 -52t137 52t76 128q13 77 -30.5 128.5t-117.5 51.5q-75 0 -137.5 -51.5t-75.5 -128.5zM477 469v-2q-16 -89 36 -158t149 -69q98 0 174 69.5t92 159.5q18 92 -33.5 161.5t-149.5 69.5
t-174 -69t-94 -162z" />
    <glyph glyph-name="nine" unicode="9" 
d="M653 0h-352l358 399q10 12 27 30.5t30.5 33.5t24.5 29q-14 -7 -53.5 -15t-71.5 -8q-89 0 -167 34t-135.5 96t-81 161.5t-1.5 220.5q29 160 129 290t243 201.5t298 71.5q139 0 246 -51t164 -145q34 -49 51.5 -115.5t17 -128.5t-9.5 -123q-21 -110 -75.5 -205.5
t-135.5 -193.5zM1073 1008v2q23 117 -41.5 191.5t-175.5 74.5t-202 -76.5t-113 -189.5q-22 -116 39.5 -194.5t175.5 -78.5q109 0 202 75t115 196z" />
    <glyph glyph-name="colon" unicode=":" horiz-adv-x="624" 
d="M662 1124l-58 -303h-280l57 303h281zM508 303l-55 -303h-281l55 303h281z" />
    <glyph glyph-name="semicolon" unicode=";" horiz-adv-x="624" 
d="M662 1124l-58 -303h-280l57 303h281zM510 303l-285 -463h-211l213 463h283z" />
    <glyph glyph-name="less" unicode="&#x3c;" horiz-adv-x="1228" 
d="M215 643l1120 449l-53 -283l-815 -293l707 -291l-52 -282l-954 448z" />
    <glyph glyph-name="equal" unicode="=" horiz-adv-x="1228" 
d="M266 899h1028l-47 -260h-1028zM174 393h1028l-49 -258h-1028z" />
    <glyph glyph-name="greater" unicode="&#x3e;" horiz-adv-x="1228" 
d="M137 225l817 293l-708 291l53 283l952 -449l-47 -252l-1118 -448z" />
    <glyph glyph-name="question" unicode="?" horiz-adv-x="1183" 
d="M776 446h-282q22 103 85 188.5t193 190.5q101 85 146.5 138.5t58.5 115.5q14 81 -24.5 134t-123.5 53q-87 0 -148 -52.5t-87 -138.5q-12 -47 -12 -49h-295q2 21 6 43q32 142 124 251.5t217 166.5t261 57q72 0 135 -17t108.5 -47t80.5 -71.5t52.5 -89.5t24 -101.5
t-5.5 -107.5q-12 -65 -41 -122t-79 -109.5t-86.5 -84t-102.5 -83.5q-110 -89 -149.5 -145t-55.5 -120zM750 303l-56 -303h-282l55 303h283z" />
    <glyph glyph-name="at" unicode="@" horiz-adv-x="1556" 
d="M1346 268l18 -141q-95 -59 -215 -97t-200 -49.5t-138 -11.5q-102 0 -190.5 19t-156 54t-122.5 82.5t-92 104.5t-62.5 120.5t-35.5 131t-9.5 134.5t13.5 133q28 156 113 300.5t208 254.5t286.5 176.5t338.5 66.5q150 0 274 -50t203.5 -137t112.5 -210.5t6 -265.5
q-21 -117 -79 -222.5t-131.5 -177t-156.5 -113.5t-157 -42q-70 0 -115.5 37t-48.5 110q-62 -76 -127 -110.5t-148 -34.5q-117 0 -188 92.5t-43 245.5q22 116 94.5 227t183 185.5t224.5 74.5q82 0 126 -36.5t54 -96.5l47 106h174l-195 -475q-31 -76 -34 -98q-18 -72 57 -72
q78 0 175.5 116t129.5 282q21 115 -5.5 212.5t-90 163t-157.5 102t-206 36.5q-136 0 -265 -53t-228.5 -142t-169 -207.5t-94.5 -247.5q-10 -52 -10.5 -108t10.5 -117.5t33.5 -118t64 -108t97.5 -89.5t138 -60.5t181 -22.5q130 0 262.5 36.5t245.5 110.5zM684 674v-2
q-18 -96 21.5 -141.5t101.5 -45.5q75 0 134.5 50t100.5 124q56 105 68 168q13 71 -18 120.5t-97 49.5q-98 0 -193 -98.5t-118 -224.5z" />
    <glyph glyph-name="A" unicode="A" horiz-adv-x="1515" 
d="M512 297l-164 -297h-332l895 1516h269l319 -1516h-334l-55 297h-598zM1073 541l-106 614l-330 -614h436z" />
    <glyph glyph-name="B" unicode="B" horiz-adv-x="1269" 
d="M143 0l281 1516h498q218 0 323 -91q130 -98 92 -303q-20 -103 -84 -183t-161 -128q49 -18 86.5 -44.5t59.5 -53.5t35.5 -61t18 -61t4.5 -59t-2 -49t-6 -37q-19 -104 -78 -194.5t-147 -145.5q-100 -66 -191.5 -86t-261.5 -20h-467zM680 1247l-64 -338h170q82 0 136 21
q93 44 114 151q10 55 -7.5 92t-49.5 52q-45 22 -131 22h-168zM569 653l-71 -385h215q86 0 145 23q117 46 141 174q22 122 -75 168q-45 20 -150 20h-205z" />
    <glyph glyph-name="C" unicode="C" horiz-adv-x="1679" 
d="M1386 508h322q-114 -237 -346.5 -387t-495.5 -150q-169 0 -306.5 64t-220.5 172t-116 252t-4 301q28 151 111.5 292.5t205 250.5t284.5 175t337 66q125 -1 231.5 -36.5t178 -92t123 -130t77 -145t31.5 -141.5h-321q-9 34 -25.5 68.5t-48 73t-71.5 67.5t-99.5 48
t-128.5 20q-107 0 -207.5 -43t-175.5 -114.5t-127 -165t-70 -193.5q-26 -138 13 -256.5t138.5 -191t239.5 -72.5q76 0 149 23.5t122 54t95 73t66.5 67.5t38.5 50z" />
    <glyph glyph-name="D" unicode="D" horiz-adv-x="1499" 
d="M143 0l281 1516h481q68 0 122 -3.5t128.5 -19t131.5 -42t115 -77.5t97 -121q122 -197 66 -493q-24 -131 -72.5 -243.5t-126.5 -208.5t-180.5 -164t-239.5 -106t-299 -38h-504zM680 1247l-182 -979h215q119 0 215.5 37.5t161.5 105t106.5 154t60.5 191.5q40 207 -38 340
q-87 151 -322 151h-217z" />
    <glyph glyph-name="E" unicode="E" horiz-adv-x="1091" 
d="M143 0l281 1516h850l-49 -269h-545l-64 -344h535l-51 -268h-535l-67 -367h544l-49 -268h-850z" />
    <glyph glyph-name="F" unicode="F" horiz-adv-x="1021" 
d="M143 0l281 1516h805l-49 -269h-500l-68 -362h488l-49 -269h-488l-114 -616h-306z" />
    <glyph glyph-name="G" unicode="G" horiz-adv-x="1748" 
d="M1815 1051h-345q-39 79 -90 125q-108 100 -272 100q-93 0 -186.5 -34.5t-175 -98t-142 -163t-82.5 -218.5q-19 -103 -6.5 -186t49 -145.5t91.5 -105t122 -64t140 -21.5q175 0 317 92q138 87 199 229h-566l45 246h918q-12 -86 -47 -189.5t-90 -191.5q-73 -114 -175 -203.5
t-212.5 -143t-222 -81t-216.5 -27.5q-134 0 -249.5 40t-198.5 111.5t-139.5 171t-71 217.5t7.5 251q31 166 121.5 312.5t218 249t286 161.5t322.5 59q252 0 433 -141t217 -352z" />
    <glyph glyph-name="H" unicode="H" horiz-adv-x="1478" 
d="M449 0h-306l281 1516h305l-113 -609h584l113 609h305l-281 -1516h-305l119 639h-584z" />
    <glyph glyph-name="I" unicode="I" horiz-adv-x="589" 
d="M143 0l281 1516h305l-280 -1516h-306z" />
    <glyph glyph-name="J" unicode="J" horiz-adv-x="1120" 
d="M1257 1516l-176 -957q-43 -226 -110 -334q-31 -47 -80.5 -93t-102.5 -75q-143 -86 -305 -86q-19 0 -43 2t-64.5 11t-77.5 23t-77 42t-69 65.5t-47.5 95t-18.5 128.5q-1 19 8 100h326q-4 -14 -4 -41q3 -73 38.5 -115t94.5 -42q112 3 166 98q31 54 47 147l190 1031h305z
" />
    <glyph glyph-name="K" unicode="K" horiz-adv-x="1359" 
d="M180 0l281 1516h305l-129 -703l631 703h321l-688 -756l463 -760h-373l-379 680l-127 -680h-305z" />
    <glyph glyph-name="L" unicode="L" horiz-adv-x="964" 
d="M150 0l280 1516h305l-231 -1248h497l-49 -268h-802z" />
    <glyph glyph-name="M" unicode="M" horiz-adv-x="1884" 
d="M424 0h-281l281 1516h412l188 -1088l584 1088h413l-280 -1516h-283l234 1214l-650 -1214h-200l-201 1214z" />
    <glyph glyph-name="N" unicode="N" horiz-adv-x="1544" 
d="M696 1516l502 -1051l188 1051h293l-280 -1516h-271l-503 1049l-189 -1049h-293l281 1516h272z" />
    <glyph glyph-name="O" unicode="O" horiz-adv-x="1742" 
d="M213 743v2q33 177 126 328.5t221.5 253.5t283.5 159.5t313 57.5q168 0 305.5 -62.5t222 -169t118.5 -251t5 -303.5q-40 -213 -175.5 -393t-340 -287t-430.5 -107q-114 0 -214.5 29t-176.5 81t-135.5 124t-90.5 157.5t-42 182.5t10 198zM522 760v-2q-26 -138 13.5 -256
t140.5 -190t244 -72q111 0 213.5 45.5t176 119t124 165t67.5 186.5q14 64 9 127t-21 120.5t-51 107.5t-80.5 86.5t-110 57.5t-139.5 21q-110 0 -212 -43t-177 -115t-127 -165t-70 -193z" />
    <glyph glyph-name="P" unicode="P" horiz-adv-x="1239" 
d="M418 1516h459q182 0 274.5 -25t153.5 -80q69 -66 95 -169t5 -218q-22 -114 -85.5 -219.5t-145.5 -163.5q-93 -66 -191 -93.5t-258 -27.5h-186l-97 -520h-305zM674 1247l-86 -459h180q127 0 207 39q48 24 86 74.5t49 118.5q13 69 -6.5 117t-63.5 71q-65 39 -198 39h-168z
" />
    <glyph glyph-name="Q" unicode="Q" horiz-adv-x="1781" 
d="M1808 219l-45 -246q-69 0 -106 2q-208 9 -322 123q-222 -127 -461 -127q-102 0 -193.5 22.5t-162 63.5t-129 97.5t-95.5 125t-61 146t-25 159.5t13 167q28 154 113 297.5t207.5 253t285.5 175.5t336 66q100 0 190 -22t161.5 -61.5t131 -95t98 -123t63.5 -145t26.5 -161
t-12.5 -170.5q-14 -77 -39.5 -148t-49.5 -117t-59.5 -94t-53 -68t-46.5 -50q41 -36 93.5 -50.5t141.5 -19.5zM1114 1276h-2q-176 0 -326 -110.5t-219 -293.5q-17 -67 -20 -108q4 1 30 8.5t38.5 11t40 10t48 9.5t49 5.5t56.5 2.5q197 0 336 -104q55 -42 96 -83.5t131 -140.5
q113 113 144 283q21 112 -1 208.5t-78 162t-139.5 102.5t-183.5 37zM924 240h2q66 0 128 16t101 39q-44 67 -133 149q-118 107 -291 107q-95 0 -192 -33q20 -75 64.5 -131.5t100.5 -87t111.5 -45t108.5 -14.5z" />
    <glyph glyph-name="R" unicode="R" horiz-adv-x="1286" 
d="M137 0l281 1516h459q319 0 434 -97q81 -66 110.5 -174.5t5.5 -236.5q-29 -161 -133 -283q-106 -121 -280 -164l233 -561h-319l-277 705h60q199 0 282 55q109 79 137 221q12 69 -7.5 128t-63.5 91q-66 47 -207 47h-178l-232 -1247h-305z" />
    <glyph glyph-name="S" unicode="S" horiz-adv-x="1144" 
d="M150 471h303q-8 -58 0.5 -103.5t27 -71t45 -42t49.5 -22t46 -5.5q86 0 157 60t86 141q4 22 3 41t-7 35t-16 30t-25.5 26.5t-34.5 24t-43 23t-51.5 23.5t-59.5 26q-26 11 -40 17q-132 51 -198 108q-139 120 -103 314q19 105 78.5 192t142 142t176.5 84.5t188 29.5
q64 0 123.5 -13.5t117 -46t97 -81.5t57 -126.5t3.5 -174.5h-301q0 28 -1.5 47t-10 48t-23.5 46.5t-45.5 31t-73.5 13.5q-77 0 -141.5 -48.5t-77.5 -123.5q-16 -76 33.5 -115.5t231.5 -120.5q8 -4 14 -6.5t12 -5.5q169 -80 238.5 -176t41.5 -250q-17 -94 -62.5 -177
t-117 -149.5t-178.5 -105.5t-236 -39q-251 0 -360 136.5t-65 363.5z" />
    <glyph glyph-name="T" unicode="T" horiz-adv-x="993" 
d="M346 0l232 1247h-328l49 269h958l-49 -269h-325l-232 -1247h-305z" />
    <glyph glyph-name="U" unicode="U" horiz-adv-x="1382" 
d="M420 1516h305l-172 -932q-9 -49 -13 -78.5t-2 -72.5t15 -79q43 -114 184 -114q144 0 224 108q26 35 44 79t24.5 72.5t17.5 84.5l172 932h305l-172 -932q-33 -171 -89.5 -279.5t-156.5 -187.5q-181 -146 -418 -146q-101 0 -203 33.5t-163 112.5q-56 65 -78.5 137.5
t-19.5 145.5t24 184z" />
    <glyph glyph-name="V" unicode="V" horiz-adv-x="1449" 
d="M569 0l-260 1516h316l166 -1151l595 1151h316l-823 -1516h-310z" />
    <glyph glyph-name="W" unicode="W" horiz-adv-x="1961" 
d="M432 0l-121 1516h312l55 -1098l467 1098h233l64 -1100l459 1100h309l-690 -1516h-275l-67 1075l-463 -1075h-283z" />
    <glyph glyph-name="X" unicode="X" horiz-adv-x="1449" 
d="M20 0l674 797l-342 719h346l217 -496l398 496h344l-604 -725l377 -791h-349l-258 582l-461 -582h-342z" />
    <glyph glyph-name="Y" unicode="Y" horiz-adv-x="1277" 
d="M487 0l101 543l-285 973h330l160 -689l415 689h328l-643 -973l-100 -543h-306z" />
    <glyph glyph-name="Z" unicode="Z" horiz-adv-x="1021" 
d="M1219 1272l-762 -1004h587l-49 -268h-960l37 199l800 1048h-614l49 269h957z" />
    <glyph glyph-name="bracketleft" unicode="[" horiz-adv-x="944" 
d="M760 -203l-41 -219h-580l359 1938h579l-41 -222h-319l-277 -1497h320z" />
    <glyph glyph-name="backslash" unicode="\" horiz-adv-x="1175" 
d="M692 -205l-266 1721h299l266 -1721h-299z" />
    <glyph glyph-name="bracketright" unicode="]" horiz-adv-x="944" 
d="M68 -422l41 219h321l277 1497h-322l41 222h582l-359 -1938h-581z" />
    <glyph glyph-name="asciicircum" unicode="^" horiz-adv-x="1228" 
d="M264 768l496 748h270l217 -748h-293l-104 512l-295 -512h-291z" />
    <glyph glyph-name="underscore" unicode="_" horiz-adv-x="1024" 
d="M977 -256h-1024l18 102h1024z" />
    <glyph glyph-name="grave" unicode="`" horiz-adv-x="1136" 
d="M639 1673l444 -268l-106 -160l-459 238z" />
    <glyph glyph-name="a" unicode="a" horiz-adv-x="1425" 
d="M1501 1124l-209 -1124h-268l31 162q-70 -95 -181.5 -146t-234.5 -51q-88 0 -163 22.5t-129.5 62.5t-95 95.5t-60 122t-25 141.5t11.5 154q24 130 90 242t157.5 189t204.5 121t230 44q140 0 226.5 -59t115.5 -139l31 163h268zM446 559l-2 -2q-8 -35 -4.5 -73.5t12 -76.5
t32 -73t54.5 -61.5t79 -42t106 -15.5q107 0 192.5 49t141.5 131q48 67 71 158q19 84 -2 158q-22 87 -92 142.5t-184 55.5q-155 0 -267 -105.5t-137 -244.5z" />
    <glyph glyph-name="b" unicode="b" horiz-adv-x="1409" 
d="M133 0l281 1516h268l-74 -396l-24 -135q93 93 203.5 133.5t203.5 40.5q102 0 193 -37.5t159.5 -108.5t97 -187t1.5 -259q-26 -139 -93.5 -254t-160 -190.5t-203.5 -116.5t-227 -41q-128 0 -217 55t-119 142l-31 -162h-258zM1174 563v2q27 141 -51.5 242.5t-223.5 101.5
q-152 0 -264.5 -102t-138.5 -244q-27 -145 46.5 -246.5t221.5 -101.5q156 0 270 104.5t140 243.5z" />
    <glyph glyph-name="c" unicode="c" horiz-adv-x="1318" 
d="M1053 410h274q-86 -193 -266 -319t-393 -126q-173 0 -297 82.5t-174 218.5t-21 297q30 164 133 300.5t254 216t316 79.5q214 0 353.5 -124t149.5 -328h-274q-19 93 -86 145q-69 57 -180 57q-137 3 -256 -96q-112 -98 -140 -250q-28 -151 49 -248.5t220 -97.5
q116 0 202 56.5t136 136.5z" />
    <glyph glyph-name="d" unicode="d" horiz-adv-x="1419" 
d="M1565 1516l-281 -1516h-256l31 162q-155 -197 -422 -197q-169 0 -285 81t-160.5 217t-13.5 300q25 133 91.5 246.5t158 189t202 118t224.5 42.5q76 0 139.5 -18.5t103.5 -47.5t64.5 -57.5t36.5 -56.5l29 164l69 373h269zM446 565v-2q-27 -146 51 -246t230 -100
q145 0 268 102t144 250q24 147 -58 242q-79 98 -225 98q-157 0 -270.5 -102t-139.5 -242z" />
    <glyph glyph-name="e" unicode="e" horiz-adv-x="1308" 
d="M1325 473h-905q-14 -129 68 -204.5t206 -73.5q185 0 297 151h277q-110 -180 -279 -283q-157 -98 -340 -98q-126 0 -229 49t-165 130.5t-86.5 190t-2.5 224.5q22 118 87 228t157 192t212 131t244 49q125 0 224 -44.5t163 -127.5q164 -205 72 -514zM461 678h637
q4 41 -11 85t-46.5 82.5t-88 63t-127.5 23.5q-94 0 -174.5 -41.5t-126.5 -97.5t-63 -115z" />
    <glyph glyph-name="f" unicode="f" horiz-adv-x="616" 
d="M150 0l169 918h-139l39 206h139l11 64q13 69 39 124.5t56.5 92t73.5 63t81 41t89.5 22.5t88 10t86.5 3l-39 -207q-29 0 -45.5 -1t-47 -9t-49.5 -23.5t-38 -47t-27 -76.5l-10 -56h178l-39 -206h-178l-170 -918h-268z" />
    <glyph glyph-name="g" unicode="g" horiz-adv-x="1409" 
d="M1491 1124l-184 -991q-49 -258 -179 -397q-96 -102 -244.5 -167t-314.5 -65q-101 0 -184 23.5t-137 61t-91.5 88.5t-54.5 103t-20 107h311q19 -71 94 -114q64 -39 142 -39q84 0 164.5 36t146 115t84.5 187l18 94q-63 -85 -166 -143t-235 -58q-120 0 -218 44t-160 121.5
t-86 188.5t-1 238q34 178 138.5 316.5t248 211t299.5 72.5q120 0 208.5 -50t121.5 -134l29 151h270zM446 565v-2q-28 -148 49.5 -247t223.5 -99t256 96q110 90 141 240q27 144 -37 242q-68 112 -233 112q-139 0 -256 -97t-144 -245z" />
    <glyph glyph-name="h" unicode="h" horiz-adv-x="1298" 
d="M133 0l281 1516h268l-68 -365l-28 -160q60 85 158 127.5t204 40.5q244 0 320 -158q64 -129 16 -383l-115 -618h-268l113 606q26 137 -13 213q-48 88 -178 88q-141 0 -225 -98q-61 -71 -80 -180l-117 -629h-268z" />
    <glyph glyph-name="i" unicode="i" horiz-adv-x="532" 
d="M369 1276l45 240h268l-45 -240h-268zM133 0l209 1124h268l-209 -1124h-268z" />
    <glyph glyph-name="j" unicode="j" horiz-adv-x="604" 
d="M418 1276l45 240h268l-45 -240h-268zM659 1124l-204 -1104q-11 -57 -22 -99.5t-29 -90t-41 -81.5t-57.5 -66.5t-77.5 -53.5t-102.5 -34.5t-131.5 -16.5h-70l39 209h39q49 4 82.5 22t53 53.5t28.5 66.5t18 83l207 1112h268z" />
    <glyph glyph-name="k" unicode="k" horiz-adv-x="1146" 
d="M141 0l281 1516h268l-151 -820l467 428h321l-559 -495l352 -629h-307l-299 561l-104 -561h-269z" />
    <glyph glyph-name="l" unicode="l" horiz-adv-x="532" 
d="M133 0l281 1516h268l-281 -1516h-268z" />
    <glyph glyph-name="m" unicode="m" horiz-adv-x="1974" 
d="M133 0l209 1124h252l-27 -141q16 23 45 49.5t74 57t109.5 50t132.5 19.5q167 0 256 -115q32 -48 47 -102q50 64 102 107q137 110 307 110q190 0 279 -112q60 -78 68 -168.5t-25 -262.5l-115 -616h-268l113 606q24 144 -6 209q-30 92 -160 92q-138 0 -213 -102
q-53 -68 -74 -189l-115 -616h-268l115 616q21 113 0 187q-40 101 -166 104q-133 0 -211 -104q-58 -77 -80 -195l-113 -608h-268z" />
    <glyph glyph-name="n" unicode="n" horiz-adv-x="1298" 
d="M133 0l209 1124h252q-25 -123 -31 -149q140 186 385 184q76 0 136.5 -17t99.5 -44.5t65.5 -66.5t39.5 -80.5t16.5 -90.5t0.5 -92.5t-12 -89.5l-125 -678h-268l113 610q55 297 -189 297q-134 -1 -209.5 -79t-99.5 -207l-115 -621h-268z" />
    <glyph glyph-name="o" unicode="o" horiz-adv-x="1351" 
d="M178 563v2q20 109 79.5 213.5t149 189.5t216.5 137t268 52q82 0 153 -17.5t124.5 -49.5t96.5 -76t69 -96t42.5 -111t15.5 -120.5t-10 -123.5q-20 -111 -79.5 -216t-149 -190.5t-216 -137.5t-267.5 -52q-82 0 -153 17.5t-124.5 49.5t-97 76t-69.5 96.5t-42 111.5
t-15.5 120.5t9.5 124.5zM446 563v-2q-27 -146 52 -244t219 -98q139 0 253.5 98t141.5 246t-51 246t-217 98q-91 0 -175.5 -44t-144.5 -123.5t-78 -176.5z" />
    <glyph glyph-name="p" unicode="p" horiz-adv-x="1417" 
d="M59 -393l283 1517h252l-31 -163q80 90 190.5 144t243.5 54q82 0 151 -19.5t118.5 -53t87 -80t59.5 -100.5t33 -114t10 -120t-12 -119q-22 -119 -83 -226.5t-148 -187.5t-200.5 -127t-234.5 -47q-78 0 -141.5 18t-104 48t-65 59t-37.5 60l-29 -150l-73 -393h-269z
M1178 561v2q7 49 4.5 98t-24.5 94t-55 79t-86.5 54.5t-119.5 20.5q-142 0 -262 -102q-117 -99 -141 -248q-28 -148 53 -244q80 -100 223 -100q150 0 265.5 102t142.5 244z" />
    <glyph glyph-name="q" unicode="q" horiz-adv-x="1417" 
d="M1493 1124l-283 -1517h-268l74 393l28 158q-27 -33 -61 -63t-85.5 -61.5t-123 -50t-151.5 -18.5q-161 0 -274.5 79t-158 211t-16.5 290q52 273 246 443.5t440 170.5q79 0 142.5 -19t102.5 -51t62.5 -62.5t36.5 -63.5l31 161h258zM444 557v-2q-16 -84 10 -160t97.5 -127
t175.5 -51q139 0 260 100q115 98 143 242q30 146 -49 248q-39 48 -99 75t-130 27q-158 0 -269.5 -105.5t-138.5 -246.5z" />
    <glyph glyph-name="r" unicode="r" horiz-adv-x="712" 
d="M131 0l209 1124h254l-29 -147q122 179 346 182l-51 -270h-12q-143 0 -226.5 -69t-109.5 -214l-113 -606h-268z" />
    <glyph glyph-name="s" unicode="s" horiz-adv-x="985" 
d="M1036 821h-264q9 48 -14 82q-25 39 -101 39q-63 0 -104 -34t-49 -79q-7 -50 36 -82.5t128 -58.5q86 -25 131 -42.5t103 -55.5t76 -99t3 -147q-29 -169 -171.5 -274t-324.5 -105q-55 0 -107.5 11.5t-103.5 38.5t-87 67.5t-54.5 104t-9.5 141.5h268q-4 -43 9 -73.5
t36.5 -45t46.5 -21t45 -6.5q64 0 117 37.5t62 93.5q12 65 -36 98t-205 92q-9 3 -13 5q-259 85 -224 293q20 107 91.5 190t171 125.5t208.5 42.5q50 0 96.5 -9t95 -32.5t82.5 -60.5t52 -97.5t10 -138.5z" />
    <glyph glyph-name="t" unicode="t" horiz-adv-x="690" 
d="M207 0l170 918h-187l39 206h187l71 392h269l-72 -392h193l-39 -206h-193l-170 -918h-268z" />
    <glyph glyph-name="u" unicode="u" horiz-adv-x="1302" 
d="M1378 1124l-209 -1124h-251l28 150q-134 -187 -385 -185q-89 0 -156.5 22t-107 60t-63.5 84t-30.5 102t-4.5 106.5t12 104.5l127 680h268l-114 -612q-14 -62 -10.5 -116.5t22.5 -94t64.5 -62.5t115.5 -22q255 0 311 287l115 620h268z" />
    <glyph glyph-name="v" unicode="v" horiz-adv-x="1155" 
d="M1335 1124l-626 -1124h-263l-208 1124h278l125 -786l416 786h278z" />
    <glyph glyph-name="w" unicode="w" horiz-adv-x="1693" 
d="M377 0l-152 1124h279l78 -782l352 745h227l82 -745l365 782h278l-569 -1124h-252l-80 760l-356 -760h-252z" />
    <glyph glyph-name="x" unicode="x" horiz-adv-x="1175" 
d="M6 0l526 592l-280 532h323l154 -346l285 346h319l-475 -532l309 -592h-329l-181 387l-325 -387h-326z" />
    <glyph glyph-name="y" unicode="y" horiz-adv-x="1128" 
d="M174 -393l266 436l-223 1081h287l135 -747l410 747h286l-874 -1517h-287z" />
    <glyph glyph-name="z" unicode="z" horiz-adv-x="890" 
d="M29 0l34 186l664 732h-518l39 206h811l-39 -206l-633 -711h510l-39 -207h-829z" />
    <glyph glyph-name="braceleft" unicode="{" horiz-adv-x="1069" 
d="M1200 1522l-39 -207h-112q-75 0 -105.5 -40t-44.5 -118l-78 -416q-7 -37 -22.5 -70t-37 -58t-43.5 -45t-48.5 -36.5t-43.5 -25.5t-38 -18.5t-23 -10.5q33 -7 63 -22.5t58.5 -42t40.5 -71t2 -99.5l-78 -420q-8 -48 -9 -83.5t23 -56t76 -20.5h113l-37 -207h-229
q-124 0 -189 69.5t-39 207.5l78 420q28 144 -153 188l51 278q27 3 58.5 14.5t66.5 33.5t62.5 62t37.5 91l80 428q25 136 116 205.5t214 69.5h229z" />
    <glyph glyph-name="bar" unicode="|" horiz-adv-x="946" 
d="M502 1776h227v-2366h-227v2366z" />
    <glyph glyph-name="braceright" unicode="}" horiz-adv-x="1069" 
d="M395 1315l39 207h230q121 0 185.5 -69.5t39.5 -205.5l-80 -428q-9 -51 4 -91t41 -62t55.5 -33.5t53.5 -14.5l-52 -278q-197 -43 -225 -188l-78 -420q-26 -138 -116 -207.5t-211 -69.5h-230l37 207h111q76 0 105.5 38.5t45.5 121.5l78 420q7 37 27.5 71t44.5 57t55 45
t53 33t46 22.5t26 12.5q-34 9 -63 24.5t-57.5 44t-39.5 77t0 112.5l78 416q7 45 8 80t-23 56.5t-77 21.5h-111z" />
    <glyph glyph-name="asciitilde" unicode="~" horiz-adv-x="1228" 
d="M1157 727l17 -252q-72 -82 -136.5 -127t-140.5 -45q-86 0 -201 70q-124 73 -223 73q-106 0 -209 -139l-20 250q133 174 291 172q81 0 219 -67q11 -5 50 -24.5t55.5 -26.5t43.5 -15t47 -8q29 0 56.5 10.5t56 34.5t46.5 42t48 52z" />
    <glyph glyph-name="uni00A0" unicode="&#xa0;" horiz-adv-x="616" 
 />
    <glyph glyph-name="exclamdown" unicode="&#xa1;" horiz-adv-x="643" 
d="M336 821l57 303h277l-58 -303h-276zM113 -391l194 1057h277l-195 -1057h-276z" />
    <glyph glyph-name="cent" unicode="&#xa2;" 
d="M750 68h-226l41 217q-68 19 -121 52t-86.5 73t-55 84.5t-30 92.5t-8.5 91t8 84q13 71 48 142.5t91 140.5t142 123t190 79l39 211h217l-38 -205q145 -39 223.5 -142.5t83.5 -225.5h-281q-22 57 -69.5 83.5t-104.5 26.5q-96 0 -174.5 -66.5t-97.5 -162.5
q-18 -94 34.5 -161.5t153.5 -67.5q122 0 205 98h287q-62 -129 -177.5 -226t-252.5 -124z" />
    <glyph glyph-name="sterling" unicode="&#xa3;" 
d="M997 842l-39 -217h-243q10 -14 15.5 -21.5t15.5 -23t15 -26.5t11.5 -28.5t9 -33t2.5 -35t-4 -39.5q-13 -77 -116 -176h110q105 0 162 37q88 62 104 155q5 24 2 80h263q5 -72 -5 -123q-11 -63 -51 -132t-98 -124q-74 -65 -164 -100t-217 -35h-684l45 242h152
q167 17 194 155q20 108 -82 228h-254l39 217h119q-47 86 -27 207q17 93 71 181.5t134 158.5t189.5 112.5t228.5 42.5q101 0 186 -32.5t144 -91.5t87 -148.5t17 -198.5h-282q-1 36 -10.5 69t-30.5 64.5t-61.5 50.5t-96.5 19q-100 0 -177 -69t-96 -165q-17 -109 41 -200h381z
" />
    <glyph glyph-name="currency" unicode="&#xa4;" 
d="M1098 113l-135 166q-151 -95 -312 -95q-156 0 -278 95l-197 -164l-110 133l202 170q-63 127 -37 280q29 159 146 289l-141 172l159 137l146 -174q142 88 301 88q157 0 266 -86l205 170l108 -135l-200 -170q68 -131 39 -291q-26 -150 -140 -280l140 -168zM485 700v-2
q-20 -107 42.5 -184.5t168.5 -77.5q107 0 198.5 77.5t111.5 186.5q20 108 -41.5 185.5t-169.5 77.5q-107 0 -198.5 -77.5t-111.5 -185.5z" />
    <glyph glyph-name="yen" unicode="&#xa5;" 
d="M1368 1012l-43 -226h-367l-63 -88l-16 -88h413l-41 -225h-415l-72 -385h-299l72 385h-412l41 225h412l16 84l-31 92h-360l43 226h246l-193 504h324l174 -543l383 543h317l-375 -504h246z" />
    <glyph glyph-name="brokenbar" unicode="&#xa6;" horiz-adv-x="946" 
d="M502 1597h227v-827h-227v827zM502 414h227v-826h-227v826z" />
    <glyph glyph-name="section" unicode="&#xa7;" horiz-adv-x="1323" 
d="M1352 1143h-265q0 157 -182 157q-74 0 -136.5 -36.5t-76.5 -112.5q-5 -26 1 -49t15 -37.5t29.5 -30.5t32 -22t35.5 -19l325 -162q17 -8 30 -14.5t32 -18.5t33.5 -23.5t31.5 -28.5t29 -34.5t22.5 -41t15.5 -49t5 -57t-6 -66.5q-10 -55 -34 -103t-59.5 -87.5t-69 -69
t-79.5 -62.5q92 -123 64 -280q-16 -82 -61 -157.5t-115 -136t-171 -96.5t-218 -36q-36 0 -73 4.5t-80 15.5t-81.5 28.5t-77.5 44t-66.5 62.5t-49.5 83.5t-26.5 106.5t3.5 132h266q-6 -68 12.5 -115.5t54 -71t73.5 -33.5t83 -10q112 0 179 51t82 123q10 62 -30.5 105
t-123.5 84l-332 168q-20 10 -29.5 15t-31.5 18.5t-34 23.5t-31 29t-29 36.5t-22 43t-16 52.5t-4 62t7 74q40 192 260 326q-53 101 -31 225q18 97 72.5 174t129.5 123t159.5 70t171.5 24q140 0 235.5 -56.5t132.5 -146.5t19 -198zM1075 455v2q10 58 -24 95t-105 71l-352 176
q-65 -29 -97.5 -71.5t-39.5 -84.5q-19 -104 92 -158l389 -196q48 24 87 68t50 98z" />
    <glyph glyph-name="dieresis" unicode="&#xa8;" horiz-adv-x="1136" 
d="M770 1591l-53 -291h-258l53 291h258zM1212 1591l-53 -291h-258l53 291h258z" />
    <glyph glyph-name="copyright" unicode="&#xa9;" horiz-adv-x="1638" 
d="M1110 1542h2q107 0 203.5 -28.5t171.5 -80t133.5 -123t90.5 -159t42.5 -187t-10.5 -206.5q-40 -214 -178.5 -395t-337 -285.5t-410.5 -104.5q-160 0 -294 62t-219.5 166.5t-120.5 250t-5 306.5q29 158 116 302t210.5 250t282 169t323.5 63zM1083 1411h-2
q-179 0 -343 -88.5t-275 -238.5t-144 -326q-25 -134 3.5 -255.5t98.5 -208.5t179 -138.5t240 -51.5q174 0 336.5 86t277 237t148.5 331q33 175 -22.5 325t-187 239t-309.5 89zM1389 901h-175q-4 50 -21.5 84.5t-45.5 52t-56 24.5t-61 7q-66 0 -122 -26t-94.5 -70.5
t-64 -98.5t-36.5 -114q-26 -137 28.5 -220t173.5 -83q16 0 33.5 2t52 14t64 33t62 64.5t53.5 103.5h178q-45 -172 -176.5 -272.5t-300.5 -100.5q-192 0 -289.5 126.5t-59.5 334.5q35 194 179.5 327.5t347.5 133.5q112 0 191.5 -47.5t113 -119.5t25.5 -155z" />
    <glyph glyph-name="ordfeminine" unicode="&#xaa;" horiz-adv-x="817" 
d="M1006 1524l-113 -611h-166l16 88q-76 -106 -215 -106q-132 0 -202 94.5t-45 229.5q27 146 135 235.5t237 89.5q128 0 170 -108l17 88h166zM446 1217v-3q-7 -34 3.5 -69.5t45.5 -63.5t89 -28q107 0 170 92q23 40 28 74q8 39 0 75q-8 40 -44.5 66t-92.5 26q-73 0 -130 -50
t-69 -119z" />
    <glyph glyph-name="guillemotleft" unicode="&#xab;" horiz-adv-x="827" 
d="M168 578l281 378h194l-281 -378l140 -377h-195zM504 578l280 378h195l-281 -378l140 -377h-195z" />
    <glyph glyph-name="logicalnot" unicode="&#xac;" horiz-adv-x="1228" 
d="M258 868h1036l-118 -630h-261l70 370h-776z" />
    <glyph glyph-name="uni00AD" unicode="&#xad;" horiz-adv-x="567" 
d="M133 717h567l-49 -264h-567z" />
    <glyph glyph-name="registered" unicode="&#xae;" horiz-adv-x="1638" 
d="M1110 1542h2q160 0 293 -63t216 -169t117 -250.5t5 -301.5q-40 -214 -178.5 -395t-337 -285.5t-410.5 -104.5q-160 0 -294 62t-219.5 166.5t-120.5 250t-5 306.5q29 157 116 301t210.5 250.5t282 169.5t323.5 63zM1083 1411h-2q-179 0 -343 -88.5t-275 -238.5t-144 -326
q-33 -178 25 -328.5t190 -238t306 -87.5t336.5 86t277 237t148.5 331q23 131 -3.5 250.5t-94 208t-177 141.5t-244.5 53zM707 1204h372q45 0 85.5 -7t80.5 -24.5t66.5 -44.5t38.5 -70.5t2 -99.5q-26 -150 -191 -215q60 -23 83 -68t13 -134q-15 -124 -17 -153.5t3 -65.5h-172
q-8 22 10 208q5 26 1 52t-15 47.5t-47.5 35t-95.5 13.5h-138l-65 -356h-178zM1026 1077h-166l-51 -280h149q82 3 122 22q76 34 94 127q7 37 -2.5 63.5t-24 39.5t-41.5 19.5t-42 7.5t-38 1z" />
    <glyph glyph-name="macron" unicode="&#xaf;" horiz-adv-x="1136" 
d="M1221 1550l-39 -209h-733l38 209h734z" />
    <glyph glyph-name="degree" unicode="&#xb0;" horiz-adv-x="819" 
d="M918 1163v-2q-23 -122 -123.5 -206.5t-223.5 -84.5t-192.5 85t-46.5 208t124 208t224 85t192 -85t46 -208zM475 1163v-2q-11 -62 25.5 -105.5t97.5 -43.5q62 0 114 44t62 107q12 62 -24 108t-97 46t-113.5 -46t-64.5 -108z" />
    <glyph glyph-name="plusminus" unicode="&#xb1;" horiz-adv-x="1228" 
d="M635 803l57 309h258l-57 -309h387l-49 -260h-387l-56 -301h-258l56 301h-387l49 260h387zM76 -125l47 258h1032l-47 -258h-1032z" />
    <glyph glyph-name="twosuperior" unicode="&#xb2;" horiz-adv-x="804" 
d="M881 782l-33 -176h-664l29 160q179 135 354 270q79 61 117 106.5t47 94.5q20 119 -88 119q-61 0 -100 -49.5t-51 -116.5h-203q26 131 98 213q119 131 301 131q158 0 229 -71t46 -203q-14 -83 -56 -143t-125 -126q-142 -113 -260 -209h359z" />
    <glyph glyph-name="threesuperior" unicode="&#xb3;" horiz-adv-x="804" 
d="M215 885h211q-3 -54 25 -86.5t88 -32.5q62 0 103 33.5t52 91.5q7 44 -20.5 79.5t-95.5 35.5h-99l29 151h51q55 0 102.5 28.5t55.5 78.5q7 36 -10.5 63.5t-61.5 28.5q-90 0 -117 -96h-206q31 154 159 221q93 53 203 53q127 0 193.5 -72t48.5 -172q-9 -49 -47 -101.5
t-105 -86.5q74 -26 108.5 -87.5t20.5 -137.5q-22 -121 -139 -205t-260 -84q-87 0 -160 33t-106 92q-36 68 -23 172z" />
    <glyph glyph-name="acute" unicode="&#xb4;" horiz-adv-x="1136" 
d="M575 1417l543 271l51 -195l-542 -238z" />
    <glyph glyph-name="mu" unicode="&#xb5;" horiz-adv-x="1261" 
d="M49 -385l281 1509h268l-106 -575q-31 -157 8 -234q42 -98 168 -98q123 0 206 102q79 98 107 254l102 551h269l-209 -1124h-256l31 168q-117 -191 -291 -191q-94 0 -145.5 39t-71.5 90l-23 -120l-70 -371h-268z" />
    <glyph glyph-name="paragraph" unicode="&#xb6;" horiz-adv-x="1363" 
d="M397 -223l174 944q-198 0 -300.5 99.5t-67.5 291.5q14 74 44.5 135.5t68.5 102.5t88.5 72t98 48.5t102 28t96.5 14t85 3.5h678l-34 -195h-109l-287 -1544h-211l285 1542h-215l-285 -1542h-211z" />
    <glyph glyph-name="periodcentered" unicode="&#xb7;" horiz-adv-x="624" 
d="M578 670l-58 -301h-280l57 301h281z" />
    <glyph glyph-name="cedilla" unicode="&#xb8;" horiz-adv-x="1136" 
d="M627 0l-78 -111q17 7 41 7q66 0 107.5 -47.5t27.5 -129.5q-15 -78 -81 -138t-165 -60q-15 0 -32 2t-45 12.5t-48.5 27.5t-35.5 52t-13 82h131q6 -62 64 -62q34 0 60.5 23t33.5 61q6 34 -13 55t-51 21q-40 0 -69 -37l-101 58l123 184h144z" />
    <glyph glyph-name="onesuperior" unicode="&#xb9;" horiz-adv-x="804" 
d="M797 1516l-168 -910h-203l135 733h-170l33 177h373z" />
    <glyph glyph-name="ordmasculine" unicode="&#xba;" horiz-adv-x="817" 
d="M305 1217v2q12 61 44.5 118t81 103.5t117.5 74.5t146 29q103 0 170.5 -49t90 -121.5t6.5 -154.5q-23 -129 -131.5 -226.5t-256.5 -97.5q-101 0 -168.5 48t-91 120.5t-8.5 153.5zM471 1219v-2q-12 -68 26.5 -116t104.5 -48t123.5 48t69.5 118q13 70 -25 118.5t-106 48.5
q-66 0 -123 -47.5t-70 -119.5z" />
    <glyph glyph-name="guillemotright" unicode="&#xbb;" horiz-adv-x="827" 
d="M737 956l137 -378l-278 -379h-197l279 379l-137 378h196zM399 956l138 -378l-279 -379h-195l279 379l-137 378h194z" />
    <glyph glyph-name="onequarter" unicode="&#xbc;" horiz-adv-x="1740" 
d="M1513 1516l-927 -1516h-224l924 1516h227zM1462 651l-282 -332h221zM748 1516l-168 -910h-203l135 733h-168l33 177h371zM1710 909l-108 -590h100l-29 -157h-100l-31 -162h-203l31 162h-438l26 143l553 604h199z" />
    <glyph glyph-name="onehalf" unicode="&#xbd;" horiz-adv-x="1796" 
d="M748 1516l-168 -910h-203l135 733h-168l33 177h371zM1513 1516l-927 -1516h-224l924 1516h227zM1735 176l-33 -176h-664l29 160q179 135 354 270q79 61 117 106.5t47 94.5q20 119 -88 119q-61 0 -100 -49.5t-51 -116.5h-203q28 131 96 209q117 135 303 135
q158 0 229 -71.5t46 -203.5q-14 -83 -56 -142.5t-125 -125.5q-43 -35 -130 -104.5t-130 -104.5h359z" />
    <glyph glyph-name="threequarters" unicode="&#xbe;" horiz-adv-x="1949" 
d="M1683 657l-288 -338h227zM1741 1516l-926 -1516h-225l926 1516h225zM1931 909l-108 -590h100l-29 -157h-100l-31 -162h-202l30 162h-438l27 143l553 604h198zM248 885h211q-3 -54 24.5 -86.5t87.5 -32.5q61 0 103 34t53 91q7 44 -21 79.5t-96 35.5h-98l29 151h51
q55 0 102.5 28.5t55.5 78.5q7 36 -10.5 63.5t-61.5 28.5q-90 0 -117 -96h-207q31 153 160 221q93 53 203 53q126 0 192.5 -72t48.5 -172q-9 -49 -46.5 -102t-104.5 -86q74 -26 108.5 -87.5t20.5 -137.5q-22 -121 -139 -205t-260 -84q-89 0 -162.5 33t-104.5 94
q-35 65 -22 170z" />
    <glyph glyph-name="questiondown" unicode="&#xbf;" horiz-adv-x="1183" 
d="M641 821l57 303h283l-57 -303h-283zM614 676h283q-20 -102 -83 -187.5t-193 -191.5q-100 -84 -146 -138.5t-59 -115.5q-16 -81 23 -133.5t124 -52.5q87 0 147.5 52.5t86.5 139.5q5 13 14 47h295q-3 -26 -8 -41q-31 -143 -122.5 -253t-216 -167t-261.5 -57
q-87 0 -159.5 24.5t-120.5 66t-81 97t-40 118t3 128.5q10 52 34.5 102.5t50 86t71.5 79.5t73.5 67t80.5 65q111 90 150.5 146t53.5 118z" />
    <glyph glyph-name="Agrave" unicode="&#xc0;" horiz-adv-x="1515" 
d="M512 297l-164 -297h-332l895 1516h269l319 -1516h-334l-55 297h-598zM1073 541l-106 614l-330 -614h436zM887 1993l442 -267l-104 -161l-459 237z" />
    <glyph glyph-name="Aacute" unicode="&#xc1;" horiz-adv-x="1515" 
d="M512 297l-164 -297h-332l895 1516h269l319 -1516h-334l-55 297h-598zM1073 541l-106 614l-330 -614h436zM827 1739l543 268l51 -192l-542 -238z" />
    <glyph glyph-name="Acircumflex" unicode="&#xc2;" horiz-adv-x="1515" 
d="M512 297l-164 -297h-332l895 1516h269l319 -1516h-334l-55 297h-598zM1073 541l-106 614l-330 -614h436zM1210 1929l281 -315h-268l-140 137l-188 -137h-272l407 315h180z" />
    <glyph glyph-name="Atilde" unicode="&#xc3;" horiz-adv-x="1515" 
d="M512 297l-164 -297h-332l895 1516h269l319 -1516h-334l-55 297h-598zM1073 541l-106 614l-330 -614h436zM1423 1915l62 -180q-123 -76 -238 -76q-48 0 -166 29q-107 28 -157 28q-86 0 -168 -53l-60 184q118 74 232 74q62 0 168 -29q93 -28 159 -28q100 0 168 51z" />
    <glyph glyph-name="Adieresis" unicode="&#xc4;" horiz-adv-x="1515" 
d="M512 297l-164 -297h-332l895 1516h269l319 -1516h-334l-55 297h-598zM1073 541l-106 614l-330 -614h436zM1020 1911l-53 -291h-258l53 291h258zM1462 1911l-53 -291h-258l53 291h258z" />
    <glyph glyph-name="Aring" unicode="&#xc5;" horiz-adv-x="1515" 
d="M512 297l-164 -297h-332l895 1516h269l319 -1516h-334l-55 297h-598zM1073 541l-106 614l-330 -614h436zM1137 2044h2q98 0 154.5 -71t37.5 -169q-19 -99 -101 -169t-181 -70q-100 0 -158 70.5t-39 168.5q19 99 102.5 169.5t182.5 70.5zM1112 1907h-2q-41 0 -76 -30.5
t-43 -72.5q-8 -40 16.5 -69t65.5 -29t76.5 29.5t42.5 70.5q8 42 -15 71.5t-65 29.5z" />
    <glyph glyph-name="AE" unicode="&#xc6;" horiz-adv-x="1980" 
d="M-18 0l1331 1516h833l-49 -269h-512l-63 -344h501l-51 -268h-502l-67 -367h512l-49 -268h-807l59 326h-493l-275 -326h-368zM801 563h362l99 531z" />
    <glyph glyph-name="Ccedilla" unicode="&#xc7;" horiz-adv-x="1679" 
d="M893 -27l-62 -84q21 7 43 7q63 0 106.5 -48t29.5 -129q-15 -78 -81.5 -138t-166.5 -60q-14 0 -30.5 2t-44.5 12.5t-48.5 27.5t-35.5 52t-13 82h131q6 -62 61 -62q36 0 63 23t34 61q6 34 -13 55t-51 21q-41 0 -70 -37l-100 58l111 164q-193 26 -328.5 138t-190 280.5
t-18.5 361.5q28 151 111.5 292.5t205 250.5t284.5 175t337 66q125 -1 231.5 -36.5t178 -92t123 -130t77 -145t31.5 -141.5h-321q-9 34 -25.5 68.5t-48 73t-71.5 67.5t-99.5 48t-128.5 20q-107 0 -207.5 -43t-175.5 -114.5t-127 -165t-70 -193.5q-26 -138 13 -256.5
t138.5 -191t239.5 -72.5q76 0 149 23.5t122 54t95 73t66.5 67.5t38.5 50h322q-110 -230 -333.5 -379t-481.5 -156z" />
    <glyph glyph-name="Egrave" unicode="&#xc8;" horiz-adv-x="1091" 
d="M143 0l281 1516h850l-49 -269h-545l-64 -344h535l-51 -268h-535l-67 -367h544l-49 -268h-850zM682 2025l444 -266l-106 -160l-457 236z" />
    <glyph glyph-name="Eacute" unicode="&#xc9;" horiz-adv-x="1091" 
d="M143 0l281 1516h850l-49 -269h-545l-64 -344h535l-51 -268h-535l-67 -367h544l-49 -268h-850zM621 1772l540 268l51 -193l-542 -237z" />
    <glyph glyph-name="Ecircumflex" unicode="&#xca;" horiz-adv-x="1091" 
d="M143 0l281 1516h850l-49 -269h-545l-64 -344h535l-51 -268h-535l-67 -367h544l-49 -268h-850zM1004 1962l280 -315h-268l-139 137l-189 -137h-270l407 315h179z" />
    <glyph glyph-name="Edieresis" unicode="&#xcb;" horiz-adv-x="1091" 
d="M143 0l281 1516h850l-49 -269h-545l-64 -344h535l-51 -268h-535l-67 -367h544l-49 -268h-850zM813 1946l-53 -293h-258l53 293h258zM1257 1946l-53 -293h-260l53 293h260z" />
    <glyph glyph-name="Igrave" unicode="&#xcc;" horiz-adv-x="589" 
d="M143 0l281 1516h305l-280 -1516h-306zM383 2023l444 -266l-108 -162l-457 238z" />
    <glyph glyph-name="Iacute" unicode="&#xcd;" horiz-adv-x="589" 
d="M143 0l281 1516h305l-280 -1516h-306zM418 1769l538 269l54 -193l-545 -239z" />
    <glyph glyph-name="Icircumflex" unicode="&#xce;" horiz-adv-x="589" 
d="M143 0l281 1516h305l-280 -1516h-306zM752 1958l280 -316h-268l-139 138l-187 -138h-272l405 316h181z" />
    <glyph glyph-name="Idieresis" unicode="&#xcf;" horiz-adv-x="589" 
d="M143 0l281 1516h305l-280 -1516h-306zM563 1942l-55 -291h-258l55 291h258zM1006 1942l-56 -291h-258l56 291h258z" />
    <glyph glyph-name="Eth" unicode="&#xd0;" horiz-adv-x="1499" 
d="M311 907l113 609h487q56 0 100.5 -3t104 -11t109 -26t101 -46t95.5 -73t78 -104q122 -197 66 -493q-30 -162 -103 -299.5t-183.5 -240.5t-265 -161.5t-335.5 -58.5h-535l119 639h-143l49 268h143zM680 1247l-64 -340h293l-49 -268h-293l-69 -371h215q119 0 215.5 37.5
t161.5 105t106.5 154t60.5 191.5q40 207 -38 340q-87 151 -322 151h-217z" />
    <glyph glyph-name="Ntilde" unicode="&#xd1;" horiz-adv-x="1544" 
d="M696 1516l502 -1051l188 1051h293l-280 -1516h-271l-503 1049l-189 -1049h-293l281 1516h272zM1436 1911l61 -178q-121 -78 -235 -78q-37 0 -168 31q-103 28 -158 28q-87 0 -166 -53l-59 184q121 74 231 74q58 0 168 -29q89 -28 158 -28q101 0 168 49z" />
    <glyph glyph-name="Ograve" unicode="&#xd2;" horiz-adv-x="1742" 
d="M213 743v2q33 177 126 328.5t221.5 253.5t283.5 159.5t313 57.5q168 0 305.5 -62.5t222 -169t118.5 -251t5 -303.5q-40 -213 -175.5 -393t-340 -287t-430.5 -107q-114 0 -214.5 29t-176.5 81t-135.5 124t-90.5 157.5t-42 182.5t10 198zM522 760v-2q-26 -138 13.5 -256
t140.5 -190t244 -72q111 0 213.5 45.5t176 119t124 165t67.5 186.5q14 64 9 127t-21 120.5t-51 107.5t-80.5 86.5t-110 57.5t-139.5 21q-110 0 -212 -43t-177 -115t-127 -165t-70 -193zM1008 2025l444 -266l-106 -160l-459 236z" />
    <glyph glyph-name="Oacute" unicode="&#xd3;" horiz-adv-x="1742" 
d="M213 743v2q33 177 126 328.5t221.5 253.5t283.5 159.5t313 57.5q168 0 305.5 -62.5t222 -169t118.5 -251t5 -303.5q-40 -213 -175.5 -393t-340 -287t-430.5 -107q-114 0 -214.5 29t-176.5 81t-135.5 124t-90.5 157.5t-42 182.5t10 198zM522 760v-2q-26 -138 13.5 -256
t140.5 -190t244 -72q111 0 213.5 45.5t176 119t124 165t67.5 186.5q14 64 9 127t-21 120.5t-51 107.5t-80.5 86.5t-110 57.5t-139.5 21q-110 0 -212 -43t-177 -115t-127 -165t-70 -193zM944 1772l543 268l51 -193l-543 -237z" />
    <glyph glyph-name="Ocircumflex" unicode="&#xd4;" horiz-adv-x="1742" 
d="M213 743v2q33 177 126 328.5t221.5 253.5t283.5 159.5t313 57.5q168 0 305.5 -62.5t222 -169t118.5 -251t5 -303.5q-40 -213 -175.5 -393t-340 -287t-430.5 -107q-114 0 -214.5 29t-176.5 81t-135.5 124t-90.5 157.5t-42 182.5t10 198zM522 760v-2q-26 -138 13.5 -256
t140.5 -190t244 -72q111 0 213.5 45.5t176 119t124 165t67.5 186.5q14 64 9 127t-21 120.5t-51 107.5t-80.5 86.5t-110 57.5t-139.5 21q-110 0 -212 -43t-177 -115t-127 -165t-70 -193zM1327 1960l283 -315h-269l-139 137l-188 -137h-271l404 315h180z" />
    <glyph glyph-name="Otilde" unicode="&#xd5;" horiz-adv-x="1742" 
d="M213 743v2q33 177 126 328.5t221.5 253.5t283.5 159.5t313 57.5q168 0 305.5 -62.5t222 -169t118.5 -251t5 -303.5q-40 -213 -175.5 -393t-340 -287t-430.5 -107q-114 0 -214.5 29t-176.5 81t-135.5 124t-90.5 157.5t-42 182.5t10 198zM522 760v-2q-26 -138 13.5 -256
t140.5 -190t244 -72q111 0 213.5 45.5t176 119t124 165t67.5 186.5q14 64 9 127t-21 120.5t-51 107.5t-80.5 86.5t-110 57.5t-139.5 21q-110 0 -212 -43t-177 -115t-127 -165t-70 -193zM1536 1911l61 -178q-124 -78 -237 -78q-40 0 -166 31q-107 28 -158 28q-86 0 -168 -53
l-59 184q121 74 231 74q58 0 168 -29q93 -28 160 -28q101 0 168 49z" />
    <glyph glyph-name="Odieresis" unicode="&#xd6;" horiz-adv-x="1742" 
d="M213 743v2q33 177 126 328.5t221.5 253.5t283.5 159.5t313 57.5q168 0 305.5 -62.5t222 -169t118.5 -251t5 -303.5q-40 -213 -175.5 -393t-340 -287t-430.5 -107q-114 0 -214.5 29t-176.5 81t-135.5 124t-90.5 157.5t-42 182.5t10 198zM522 760v-2q-26 -138 13.5 -256
t140.5 -190t244 -72q111 0 213.5 45.5t176 119t124 165t67.5 186.5q14 64 9 127t-21 120.5t-51 107.5t-80.5 86.5t-110 57.5t-139.5 21q-110 0 -212 -43t-177 -115t-127 -165t-70 -193zM1139 1946l-54 -293h-258l54 293h258zM1581 1946l-53 -293h-258l53 293h258z" />
    <glyph glyph-name="multiply" unicode="&#xd7;" horiz-adv-x="1228" 
d="M295 0l-150 184l375 318l-258 315l219 184l258 -315l379 318l152 -187l-379 -315l258 -318l-219 -184l-256 317z" />
    <glyph glyph-name="Oslash" unicode="&#xd8;" horiz-adv-x="1742" 
d="M1511 1456l105 117h297l-236 -256q27 -30 50 -66.5t46 -89.5t34.5 -112t14.5 -134.5t-14 -156.5q-30 -159 -117 -303.5t-211.5 -251t-286 -169.5t-331.5 -63q-198 0 -348 86l-106 -114h-297l235 254q-29 33 -52.5 70t-45.5 90.5t-34 111.5t-12 133.5t15 155.5
q30 165 118.5 310.5t213.5 250t284 165t326 60.5q197 0 352 -88zM573 440l725 789q-68 47 -190 47q-112 0 -214.5 -44.5t-177.5 -117.5t-125.5 -164.5t-68.5 -187.5q-17 -98 -3 -180.5t54 -141.5zM1452 1075l-725 -788q77 -47 191 -47q113 0 216 46t176.5 120t123.5 165
t67 185q35 172 -49 319z" />
    <glyph glyph-name="Ugrave" unicode="&#xd9;" horiz-adv-x="1382" 
d="M420 1516h305l-172 -932q-9 -49 -13 -78.5t-2 -72.5t15 -79q43 -114 184 -114q144 0 224 108q26 35 44 79t24.5 72.5t17.5 84.5l172 932h305l-172 -932q-33 -171 -89.5 -279.5t-156.5 -187.5q-181 -146 -418 -146q-101 0 -203 33.5t-163 112.5q-56 65 -78.5 137.5
t-19.5 145.5t24 184zM758 2019l442 -268l-106 -160l-457 236z" />
    <glyph glyph-name="Uacute" unicode="&#xda;" horiz-adv-x="1382" 
d="M420 1516h305l-172 -932q-9 -49 -13 -78.5t-2 -72.5t15 -79q43 -114 184 -114q144 0 224 108q26 35 44 79t24.5 72.5t17.5 84.5l172 932h305l-172 -932q-33 -171 -89.5 -279.5t-156.5 -187.5q-181 -146 -418 -146q-101 0 -203 33.5t-163 112.5q-56 65 -78.5 137.5
t-19.5 145.5t24 184zM819 1763l539 269l51 -193l-543 -237z" />
    <glyph glyph-name="Ucircumflex" unicode="&#xdb;" horiz-adv-x="1382" 
d="M420 1516h305l-172 -932q-9 -49 -13 -78.5t-2 -72.5t15 -79q43 -114 184 -114q144 0 224 108q26 35 44 79t24.5 72.5t17.5 84.5l172 932h305l-172 -932q-33 -171 -89.5 -279.5t-156.5 -187.5q-181 -146 -418 -146q-101 0 -203 33.5t-163 112.5q-56 65 -78.5 137.5
t-19.5 145.5t24 184zM1147 1954l280 -314h-268l-137 136l-191 -136h-270l406 314h180z" />
    <glyph glyph-name="Udieresis" unicode="&#xdc;" horiz-adv-x="1382" 
d="M420 1516h305l-172 -932q-9 -49 -13 -78.5t-2 -72.5t15 -79q43 -114 184 -114q144 0 224 108q26 35 44 79t24.5 72.5t17.5 84.5l172 932h305l-172 -932q-33 -171 -89.5 -279.5t-156.5 -187.5q-181 -146 -418 -146q-101 0 -203 33.5t-163 112.5q-56 65 -78.5 137.5
t-19.5 145.5t24 184zM956 1937l-53 -290h-258l53 290h258zM1401 1937l-53 -290h-261l54 290h260z" />
    <glyph glyph-name="Yacute" unicode="&#xdd;" horiz-adv-x="1277" 
d="M487 0l101 543l-285 973h330l160 -689l415 689h328l-643 -973l-100 -543h-306zM780 1763l541 269l51 -193l-543 -237z" />
    <glyph glyph-name="Thorn" unicode="&#xde;" horiz-adv-x="1239" 
d="M137 0l281 1516h305l-43 -230l156 2q185 0 275 -24.5t151 -81.5q70 -67 96 -169t4 -216q-20 -112 -84.5 -218t-147.5 -165q-92 -66 -187.5 -93.5t-258.5 -27.5h-186l-56 -293h-305zM631 1020l-84 -459h180q125 0 205 39q49 25 86.5 74t50.5 117q22 134 -70 190
q-65 39 -200 39h-168z" />
    <glyph glyph-name="germandbls" unicode="&#xdf;" horiz-adv-x="1351" 
d="M129 0l166 899q35 187 76.5 284.5t126.5 178.5q95 91 215 139.5t233 48.5q102 0 183.5 -34.5t130 -92t68 -134t3.5 -159.5q-37 -194 -219 -290q132 -30 203.5 -141t44.5 -255q-17 -92 -70 -178.5t-130 -153t-180.5 -107t-213.5 -40.5q-141 1 -223.5 61.5t-110.5 161.5
l-35 -188h-268zM578 971l-103 -553h156q-5 -88 42 -144.5t142 -56.5q104 0 181.5 66t95.5 157q20 104 -33 164q-63 70 -246 70h-113l39 205h66q91 0 161 58t87 148q19 99 -31.5 157t-149.5 58q-139 0 -219 -118q-50 -75 -75 -211z" />
    <glyph glyph-name="agrave" unicode="&#xe0;" horiz-adv-x="1425" 
d="M1501 1124l-209 -1124h-268l31 162q-70 -95 -181.5 -146t-234.5 -51q-88 0 -163 22.5t-129.5 62.5t-95 95.5t-60 122t-25 141.5t11.5 154q24 130 90 242t157.5 189t204.5 121t230 44q140 0 226.5 -59t115.5 -139l31 163h268zM446 559l-2 -2q-8 -35 -4.5 -73.5t12 -76.5
t32 -73t54.5 -61.5t79 -42t106 -15.5q107 0 192.5 49t141.5 131q48 67 71 158q19 84 -2 158q-22 87 -92 142.5t-184 55.5q-155 0 -267 -105.5t-137 -244.5zM762 1673l444 -268l-106 -160l-459 238z" />
    <glyph glyph-name="aacute" unicode="&#xe1;" horiz-adv-x="1425" 
d="M1501 1124l-209 -1124h-268l31 162q-70 -95 -181.5 -146t-234.5 -51q-88 0 -163 22.5t-129.5 62.5t-95 95.5t-60 122t-25 141.5t11.5 154q24 130 90 242t157.5 189t204.5 121t230 44q140 0 226.5 -59t115.5 -139l31 163h268zM446 559l-2 -2q-8 -35 -4.5 -73.5t12 -76.5
t32 -73t54.5 -61.5t79 -42t106 -15.5q107 0 192.5 49t141.5 131q48 67 71 158q19 84 -2 158q-22 87 -92 142.5t-184 55.5q-155 0 -267 -105.5t-137 -244.5zM719 1417l541 271l53 -195l-543 -238z" />
    <glyph glyph-name="acircumflex" unicode="&#xe2;" horiz-adv-x="1425" 
d="M1501 1124l-209 -1124h-268l31 162q-70 -95 -181.5 -146t-234.5 -51q-88 0 -163 22.5t-129.5 62.5t-95 95.5t-60 122t-25 141.5t11.5 154q24 130 90 242t157.5 189t204.5 121t230 44q140 0 226.5 -59t115.5 -139l31 163h268zM446 559l-2 -2q-8 -35 -4.5 -73.5t12 -76.5
t32 -73t54.5 -61.5t79 -42t106 -15.5q107 0 192.5 49t141.5 131q48 67 71 158q19 84 -2 158q-22 87 -92 142.5t-184 55.5q-155 0 -267 -105.5t-137 -244.5zM1083 1610l281 -316h-268l-138 138l-190 -138h-270l405 316h180z" />
    <glyph glyph-name="atilde" unicode="&#xe3;" horiz-adv-x="1425" 
d="M1501 1124l-209 -1124h-268l31 162q-70 -95 -181.5 -146t-234.5 -51q-88 0 -163 22.5t-129.5 62.5t-95 95.5t-60 122t-25 141.5t11.5 154q24 130 90 242t157.5 189t204.5 121t230 44q140 0 226.5 -59t115.5 -139l31 163h268zM446 559l-2 -2q-8 -35 -4.5 -73.5t12 -76.5
t32 -73t54.5 -61.5t79 -42t106 -15.5q107 0 192.5 49t141.5 131q48 67 71 158q19 84 -2 158q-22 87 -92 142.5t-184 55.5q-155 0 -267 -105.5t-137 -244.5zM1298 1561l62 -179q-119 -77 -238 -77q-37 0 -168 30q-122 29 -157 29q-84 0 -164 -53l-62 182q48 31 111.5 53.5
t120.5 22.5q62 0 168 -29q96 -29 159 -29q97 0 168 50z" />
    <glyph glyph-name="adieresis" unicode="&#xe4;" horiz-adv-x="1425" 
d="M1501 1124l-209 -1124h-268l31 162q-70 -95 -181.5 -146t-234.5 -51q-88 0 -163 22.5t-129.5 62.5t-95 95.5t-60 122t-25 141.5t11.5 154q24 130 90 242t157.5 189t204.5 121t230 44q140 0 226.5 -59t115.5 -139l31 163h268zM446 559l-2 -2q-8 -35 -4.5 -73.5t12 -76.5
t32 -73t54.5 -61.5t79 -42t106 -15.5q107 0 192.5 49t141.5 131q48 67 71 158q19 84 -2 158q-22 87 -92 142.5t-184 55.5q-155 0 -267 -105.5t-137 -244.5zM889 1591l-53 -291h-261l54 291h260zM1331 1591l-53 -291h-258l53 291h258z" />
    <glyph glyph-name="aring" unicode="&#xe5;" horiz-adv-x="1425" 
d="M1501 1124l-209 -1124h-268l31 162q-70 -95 -181.5 -146t-234.5 -51q-88 0 -163 22.5t-129.5 62.5t-95 95.5t-60 122t-25 141.5t11.5 154q24 130 90 242t157.5 189t204.5 121t230 44q140 0 226.5 -59t115.5 -139l31 163h268zM446 559l-2 -2q-8 -35 -4.5 -73.5t12 -76.5
t32 -73t54.5 -61.5t79 -42t106 -15.5q107 0 192.5 49t141.5 131q48 67 71 158q19 84 -2 158q-22 87 -92 142.5t-184 55.5q-155 0 -267 -105.5t-137 -244.5zM993 1698h2q98 0 155 -71t38 -169q-19 -99 -102.5 -169t-182.5 -70t-156 70t-38 169q19 100 101.5 170t182.5 70z
M967 1561h-2q-42 0 -75.5 -30.5t-41.5 -72.5q-8 -40 16.5 -69t65.5 -29t76.5 29.5t42.5 70.5q8 42 -16 71.5t-66 29.5z" />
    <glyph glyph-name="ae" unicode="&#xe6;" horiz-adv-x="2267" 
d="M2281 481h-907q-4 -66 12.5 -117.5t45 -82.5t67 -51t74.5 -27.5t72 -7.5q165 0 305 151h272q-66 -108 -150.5 -190.5t-203 -136.5t-248.5 -54q-117 0 -201.5 54t-120.5 149l-30 -168h-246l31 168q-64 -94 -174.5 -148.5t-235.5 -54.5q-81 0 -150.5 19.5t-119.5 54
t-90.5 80.5t-63 100t-37.5 112t-13.5 116.5t9.5 113.5q30 166 129 303t247 216t314 79q123 0 214.5 -54t117.5 -144l31 163h246l-31 -161q75 95 179 145.5t218 50.5q112 0 207 -43t158 -123q45 -56 71 -129.5t30 -172.5t-28 -210zM446 567v-2q-27 -152 54 -250t229 -98
q140 0 255.5 100.5t141.5 241.5q25 153 -49 248q-79 102 -231 102q-81 0 -153.5 -33.5t-122 -86t-81.5 -110t-43 -112.5zM1413 664h639q-6 136 -78 201t-188 65q-148 0 -256 -96q-76 -66 -117 -170z" />
    <glyph glyph-name="ccedilla" unicode="&#xe7;" horiz-adv-x="1318" 
d="M692 -31l-55 -80q21 7 43 7q63 0 105 -48t28 -129q-15 -78 -81 -138t-165 -60q-15 0 -31.5 2t-44.5 12.5t-48 27.5t-35 52t-13 82h131q6 -62 62 -62q35 0 61 23t35 61q4 35 -14 55.5t-49 20.5q-41 0 -70 -37l-100 58l106 161q-206 36 -314 199.5t-67 386.5
q30 164 133 300.5t254 216t316 79.5q214 0 353.5 -124t149.5 -328h-274q-18 87 -88 141q-71 55 -178 55q-136 3 -258 -96q-109 -92 -138 -244q-28 -151 49 -248.5t220 -97.5q116 0 202 56.5t136 136.5h274q-84 -187 -256 -310.5t-379 -130.5z" />
    <glyph glyph-name="egrave" unicode="&#xe8;" horiz-adv-x="1308" 
d="M1325 473h-905q-14 -129 68 -204.5t206 -73.5q185 0 297 151h277q-110 -180 -279 -283q-157 -98 -340 -98q-126 0 -229 49t-165 130.5t-86.5 190t-2.5 224.5q22 118 87 228t157 192t212 131t244 49q125 0 224 -44.5t163 -127.5q164 -205 72 -514zM461 678h637
q4 41 -11 85t-46.5 82.5t-88 63t-127.5 23.5q-94 0 -174.5 -41.5t-126.5 -97.5t-63 -115zM725 1673l444 -268l-104 -160l-459 238z" />
    <glyph glyph-name="eacute" unicode="&#xe9;" horiz-adv-x="1308" 
d="M1325 473h-905q-14 -129 68 -204.5t206 -73.5q185 0 297 151h277q-110 -180 -279 -283q-157 -98 -340 -98q-126 0 -229 49t-165 130.5t-86.5 190t-2.5 224.5q22 118 87 228t157 192t212 131t244 49q125 0 224 -44.5t163 -127.5q164 -205 72 -514zM461 678h637
q4 41 -11 85t-46.5 82.5t-88 63t-127.5 23.5q-94 0 -174.5 -41.5t-126.5 -97.5t-63 -115zM659 1417l543 271l51 -195l-542 -238z" />
    <glyph glyph-name="ecircumflex" unicode="&#xea;" horiz-adv-x="1308" 
d="M1325 473h-905q-14 -129 68 -204.5t206 -73.5q185 0 297 151h277q-110 -180 -279 -283q-157 -98 -340 -98q-126 0 -229 49t-165 130.5t-86.5 190t-2.5 224.5q22 118 87 228t157 192t212 131t244 49q125 0 224 -44.5t163 -127.5q164 -205 72 -514zM461 678h637
q4 41 -11 85t-46.5 82.5t-88 63t-127.5 23.5q-94 0 -174.5 -41.5t-126.5 -97.5t-63 -115zM1049 1610l278 -316h-268l-137 138l-189 -138h-272l407 316h181z" />
    <glyph glyph-name="edieresis" unicode="&#xeb;" horiz-adv-x="1308" 
d="M1325 473h-905q-14 -129 68 -204.5t206 -73.5q185 0 297 151h277q-110 -180 -279 -283q-157 -98 -340 -98q-126 0 -229 49t-165 130.5t-86.5 190t-2.5 224.5q22 118 87 228t157 192t212 131t244 49q125 0 224 -44.5t163 -127.5q164 -205 72 -514zM461 678h637
q4 41 -11 85t-46.5 82.5t-88 63t-127.5 23.5q-94 0 -174.5 -41.5t-126.5 -97.5t-63 -115zM854 1591l-53 -291h-258l53 291h258zM1298 1591l-53 -291h-260l53 291h260z" />
    <glyph glyph-name="igrave" unicode="&#xec;" horiz-adv-x="532" 
d="M133 0l209 1124h268l-209 -1124h-268zM295 1673l444 -268l-106 -160l-459 238z" />
    <glyph glyph-name="iacute" unicode="&#xed;" horiz-adv-x="532" 
d="M133 0l209 1124h268l-209 -1124h-268zM313 1417l543 271l51 -195l-542 -238z" />
    <glyph glyph-name="icircumflex" unicode="&#xee;" horiz-adv-x="532" 
d="M133 0l209 1124h268l-209 -1124h-268zM659 1610l281 -316h-268l-137 138l-191 -138h-270l405 316h180z" />
    <glyph glyph-name="idieresis" unicode="&#xef;" horiz-adv-x="532" 
d="M133 0l209 1124h268l-209 -1124h-268zM469 1591l-53 -291h-258l53 291h258zM913 1591l-53 -291h-260l53 291h260z" />
    <glyph glyph-name="eth" unicode="&#xf0;" horiz-adv-x="1351" 
d="M907 1247l-499 -119l32 177l291 67q-58 36 -213 90l293 78q115 -46 215 -104l444 104l-32 -176l-250 -55q55 -43 105 -114.5t79 -158.5q31 -89 36 -199.5t-15 -215.5q-54 -287 -257.5 -469.5t-465.5 -184.5q-123 0 -225 41.5t-170 117t-95 187.5t-2 246q26 137 92 250
t155 185t191.5 111.5t206.5 39.5q77 0 146.5 -29.5t111.5 -83.5q-9 34 -39 86q-59 81 -135 129zM446 563v-2q-26 -140 46 -241t227 -101q80 0 150 30.5t119 81t81.5 111t44.5 123.5q14 62 0.5 123.5t-44 110.5t-88 79.5t-130.5 30.5q-161 0 -270 -102t-136 -244z" />
    <glyph glyph-name="ntilde" unicode="&#xf1;" horiz-adv-x="1298" 
d="M133 0l209 1124h252q-25 -123 -31 -149q140 186 385 184q76 0 136.5 -17t99.5 -44.5t65.5 -66.5t39.5 -80.5t16.5 -90.5t0.5 -92.5t-12 -89.5l-125 -678h-268l113 610q55 297 -189 297q-134 -1 -209.5 -79t-99.5 -207l-115 -621h-268zM1249 1561l62 -179
q-119 -77 -236 -77q-42 0 -168 30q-126 29 -157 29q-82 0 -166 -53l-62 182q48 31 111.5 53.5t120.5 22.5q62 0 168 -29q96 -29 161 -29q98 0 166 50z" />
    <glyph glyph-name="ograve" unicode="&#xf2;" horiz-adv-x="1351" 
d="M178 563v2q20 109 79.5 213.5t149 189.5t216.5 137t268 52q82 0 153 -17.5t124.5 -49.5t96.5 -76t69 -96t42.5 -111t15.5 -120.5t-10 -123.5q-20 -111 -79.5 -216t-149 -190.5t-216 -137.5t-267.5 -52q-82 0 -153 17.5t-124.5 49.5t-97 76t-69.5 96.5t-42 111.5
t-15.5 120.5t9.5 124.5zM446 563v-2q-27 -146 52 -244t219 -98q139 0 253.5 98t141.5 246t-51 246t-217 98q-91 0 -175.5 -44t-144.5 -123.5t-78 -176.5zM748 1673l442 -268l-105 -160l-458 238z" />
    <glyph glyph-name="oacute" unicode="&#xf3;" horiz-adv-x="1351" 
d="M178 563v2q20 109 79.5 213.5t149 189.5t216.5 137t268 52q82 0 153 -17.5t124.5 -49.5t96.5 -76t69 -96t42.5 -111t15.5 -120.5t-10 -123.5q-20 -111 -79.5 -216t-149 -190.5t-216 -137.5t-267.5 -52q-82 0 -153 17.5t-124.5 49.5t-97 76t-69.5 96.5t-42 111.5
t-15.5 120.5t9.5 124.5zM446 563v-2q-27 -146 52 -244t219 -98q139 0 253.5 98t141.5 246t-51 246t-217 98q-91 0 -175.5 -44t-144.5 -123.5t-78 -176.5zM682 1417l541 271l51 -195l-543 -238z" />
    <glyph glyph-name="ocircumflex" unicode="&#xf4;" horiz-adv-x="1351" 
d="M178 563v2q20 109 79.5 213.5t149 189.5t216.5 137t268 52q82 0 153 -17.5t124.5 -49.5t96.5 -76t69 -96t42.5 -111t15.5 -120.5t-10 -123.5q-20 -111 -79.5 -216t-149 -190.5t-216 -137.5t-267.5 -52q-82 0 -153 17.5t-124.5 49.5t-97 76t-69.5 96.5t-42 111.5
t-15.5 120.5t9.5 124.5zM446 563v-2q-27 -146 52 -244t219 -98q139 0 253.5 98t141.5 246t-51 246t-217 98q-91 0 -175.5 -44t-144.5 -123.5t-78 -176.5zM1069 1610l279 -316h-269l-137 138l-188 -138h-273l408 316h180z" />
    <glyph glyph-name="otilde" unicode="&#xf5;" horiz-adv-x="1351" 
d="M178 563v2q20 109 79.5 213.5t149 189.5t216.5 137t268 52q82 0 153 -17.5t124.5 -49.5t96.5 -76t69 -96t42.5 -111t15.5 -120.5t-10 -123.5q-20 -111 -79.5 -216t-149 -190.5t-216 -137.5t-267.5 -52q-82 0 -153 17.5t-124.5 49.5t-97 76t-69.5 96.5t-42 111.5
t-15.5 120.5t9.5 124.5zM446 563v-2q-27 -146 52 -244t219 -98q139 0 253.5 98t141.5 246t-51 246t-217 98q-91 0 -175.5 -44t-144.5 -123.5t-78 -176.5zM1276 1561l61 -179q-119 -77 -237 -77q-37 0 -168 30q-122 29 -158 29q-84 0 -164 -53l-61 182q48 31 111 53.5
t120 22.5q62 0 168 -29q96 -29 160 -29q97 0 168 50z" />
    <glyph glyph-name="odieresis" unicode="&#xf6;" horiz-adv-x="1351" 
d="M178 563v2q20 109 79.5 213.5t149 189.5t216.5 137t268 52q82 0 153 -17.5t124.5 -49.5t96.5 -76t69 -96t42.5 -111t15.5 -120.5t-10 -123.5q-20 -111 -79.5 -216t-149 -190.5t-216 -137.5t-267.5 -52q-82 0 -153 17.5t-124.5 49.5t-97 76t-69.5 96.5t-42 111.5
t-15.5 120.5t9.5 124.5zM446 563v-2q-27 -146 52 -244t219 -98q139 0 253.5 98t141.5 246t-51 246t-217 98q-91 0 -175.5 -44t-144.5 -123.5t-78 -176.5zM879 1591l-54 -291h-258l54 291h258zM1321 1591l-53 -291h-258l53 291h258z" />
    <glyph glyph-name="divide" unicode="&#xf7;" horiz-adv-x="1228" 
d="M948 1120l-53 -286h-256l53 286h256zM172 387l49 260h1028l-49 -260h-1028zM778 199l-53 -287h-256l53 287h256z" />
    <glyph glyph-name="oslash" unicode="&#xf8;" horiz-adv-x="1351" 
d="M1229 1192h268l-201 -217q130 -176 86 -412q-21 -113 -81 -219t-149.5 -191t-215.5 -136.5t-266 -51.5q-150 0 -254 60l-84 -95h-271l199 215q-60 75 -82.5 184t0.5 230q16 89 56.5 175.5t105 162.5t146 134t186.5 92t219 34q163 0 256 -57zM477 367l475 516
q-46 24 -108 24q-141 0 -255.5 -99t-142.5 -245q-22 -125 31 -196zM1083 754l-473 -512q52 -25 107 -25q147 0 257.5 101.5t137.5 244.5q22 122 -29 191z" />
    <glyph glyph-name="ugrave" unicode="&#xf9;" horiz-adv-x="1302" 
d="M1378 1124l-209 -1124h-251l28 150q-134 -187 -385 -185q-89 0 -156.5 22t-107 60t-63.5 84t-30.5 102t-4.5 106.5t12 104.5l127 680h268l-114 -612q-14 -62 -10.5 -116.5t22.5 -94t64.5 -62.5t115.5 -22q255 0 311 287l115 620h268zM653 1673l445 -268l-107 -160
l-459 238z" />
    <glyph glyph-name="uacute" unicode="&#xfa;" horiz-adv-x="1302" 
d="M1378 1124l-209 -1124h-251l28 150q-134 -187 -385 -185q-89 0 -156.5 22t-107 60t-63.5 84t-30.5 102t-4.5 106.5t12 104.5l127 680h268l-114 -612q-14 -62 -10.5 -116.5t22.5 -94t64.5 -62.5t115.5 -22q255 0 311 287l115 620h268zM713 1417l540 271l54 -195l-543 -238
z" />
    <glyph glyph-name="ucircumflex" unicode="&#xfb;" horiz-adv-x="1302" 
d="M1378 1124l-209 -1124h-251l28 150q-134 -187 -385 -185q-89 0 -156.5 22t-107 60t-63.5 84t-30.5 102t-4.5 106.5t12 104.5l127 680h268l-114 -612q-14 -62 -10.5 -116.5t22.5 -94t64.5 -62.5t115.5 -22q255 0 311 287l115 620h268zM1044 1610l279 -316h-268l-135 138
l-191 -138h-272l407 316h180z" />
    <glyph glyph-name="udieresis" unicode="&#xfc;" horiz-adv-x="1302" 
d="M1378 1124l-209 -1124h-251l28 150q-134 -187 -385 -185q-89 0 -156.5 22t-107 60t-63.5 84t-30.5 102t-4.5 106.5t12 104.5l127 680h268l-114 -612q-14 -62 -10.5 -116.5t22.5 -94t64.5 -62.5t115.5 -22q255 0 311 287l115 620h268zM854 1591l-53 -291h-258l53 291h258z
M1296 1591l-53 -291h-258l53 291h258z" />
    <glyph glyph-name="yacute" unicode="&#xfd;" horiz-adv-x="1128" 
d="M174 -393l266 436l-223 1081h287l135 -747l410 747h286l-874 -1517h-287zM641 1417l541 271l53 -195l-543 -238z" />
    <glyph glyph-name="thorn" unicode="&#xfe;" horiz-adv-x="1415" 
d="M57 -393l355 1909h268l-76 -412l-24 -129q73 84 181.5 133t235.5 49q80 0 148.5 -18.5t118.5 -52t88 -79t61 -99t35 -113t11.5 -120.5t-11.5 -122q-30 -163 -126.5 -297t-239.5 -212.5t-302 -78.5q-77 0 -140 17.5t-104 47t-66 58.5t-42 62l-27 -144l-75 -399h-269z
M1182 561v2q17 88 -9 166t-97.5 128t-174.5 50q-149 0 -270 -106q-54 -47 -90.5 -110.5t-48.5 -131.5q-25 -136 49 -235q78 -109 231 -109q152 0 267.5 102t142.5 244z" />
    <glyph glyph-name="ydieresis" unicode="&#xff;" horiz-adv-x="1128" 
d="M174 -393l266 436l-223 1081h287l135 -747l410 747h286l-874 -1517h-287zM766 1591l-53 -291h-258l53 291h258zM1210 1591l-53 -291h-260l53 291h260z" />
    <glyph glyph-name="dotlessi" unicode="&#x131;" horiz-adv-x="532" 
d="M133 0l209 1124h268l-209 -1124h-268z" />
    <glyph glyph-name="Lslash" unicode="&#x141;" horiz-adv-x="964" 
d="M82 387l57 305l160 103l133 721h305l-92 -500l281 178l-58 -305l-280 -180l-82 -441h498l-50 -268h-802l90 489z" />
    <glyph glyph-name="lslash" unicode="&#x142;" horiz-adv-x="636" 
d="M281 543l-150 -90l51 280l152 90l127 693h270l-96 -521l168 101l-51 -279l-168 -102l-133 -715h-271z" />
    <glyph glyph-name="OE" unicode="&#x152;" horiz-adv-x="2269" 
d="M1878 1247l-63 -344h503l-51 -268h-504l-67 -367h516l-49 -268h-811l18 98l16 95q-119 -112 -258 -167t-274 -55q-165 0 -300 62.5t-218.5 168t-117 250t-3.5 304.5q29 155 112 297.5t204 251.5t283 174t337 65q180 0 291 -63.5t155 -157.5l17 96l18 97h811l-49 -269
h-516zM520 756v-2q-13 -60 -8 -121t19.5 -118t48 -107t77.5 -87.5t109 -59t141 -21.5q112 0 214 44t176.5 117t126 166.5t69.5 194.5q21 107 0.5 200.5t-69 163.5t-133 110t-191.5 40q-111 0 -212.5 -43.5t-175 -116.5t-123.5 -166t-69 -194z" />
    <glyph glyph-name="oe" unicode="&#x153;" horiz-adv-x="2244" 
d="M2259 481h-905q-13 -130 61 -208t203 -78q184 0 305 149h277q-90 -149 -228 -250q-185 -129 -391 -129q-94 0 -169 24t-121.5 63.5t-74 79.5t-42.5 83q-35 -48 -81.5 -90t-109 -79t-146 -59t-175.5 -22q-88 0 -165 23t-133.5 64.5t-100 97.5t-65 122t-29 139t8.5 148
q30 161 128 296.5t253.5 219.5t335.5 84q148 0 259 -70t149 -176q73 95 207.5 169.5t289.5 74.5q122 0 221.5 -46.5t165.5 -129.5q77 -98 97 -231t-25 -269zM446 561v-2q-26 -142 52 -243t219 -101q75 0 145 31t120 81.5t84 111t46 122.5q12 65 -1 127t-46 111.5t-90.5 79.5
t-130.5 30q-86 0 -169.5 -41t-146.5 -122.5t-82 -184.5zM1395 666h633q2 107 -70 184.5t-197 77.5q-120 0 -222.5 -72t-143.5 -190z" />
    <glyph glyph-name="Scaron" unicode="&#x160;" horiz-adv-x="1144" 
d="M150 471h303q-8 -58 0.5 -103.5t27 -71t45 -42t49.5 -22t46 -5.5q86 0 157 60t86 141q4 22 3 41t-7 35t-16 30t-25.5 26.5t-34.5 24t-43 23t-51.5 23.5t-59.5 26q-26 11 -40 17q-132 51 -198 108q-139 120 -103 314q19 105 78.5 192t142 142t176.5 84.5t188 29.5
q64 0 123.5 -13.5t117 -46t97 -81.5t57 -126.5t3.5 -174.5h-301q0 28 -1.5 47t-10 48t-23.5 46.5t-45.5 31t-73.5 13.5q-77 0 -141.5 -48.5t-77.5 -123.5q-16 -76 33.5 -115.5t231.5 -120.5q8 -4 14 -6.5t12 -5.5q169 -80 238.5 -176t41.5 -250q-17 -94 -62.5 -177
t-117 -149.5t-178.5 -105.5t-236 -39q-251 0 -360 136.5t-65 363.5zM500 1944h270l137 -136l189 136h270l-403 -314h-181z" />
    <glyph glyph-name="scaron" unicode="&#x161;" horiz-adv-x="985" 
d="M1036 821h-264q9 48 -14 82q-25 39 -101 39q-63 0 -104 -34t-49 -79q-7 -50 36 -82.5t128 -58.5q86 -25 131 -42.5t103 -55.5t76 -99t3 -147q-29 -169 -171.5 -274t-324.5 -105q-55 0 -107.5 11.5t-103.5 38.5t-87 67.5t-54.5 104t-9.5 141.5h268q-4 -43 9 -73.5
t36.5 -45t46.5 -21t45 -6.5q64 0 117 37.5t62 93.5q12 65 -36 98t-205 92q-9 3 -13 5q-259 85 -224 293q20 107 91.5 190t171 125.5t208.5 42.5q50 0 96.5 -9t95 -32.5t82.5 -60.5t52 -97.5t10 -138.5zM352 1595h271l139 -135l188 135h271l-404 -313h-180z" />
    <glyph glyph-name="Ydieresis" unicode="&#x178;" horiz-adv-x="1277" 
d="M487 0l101 543l-285 973h330l160 -689l415 689h328l-643 -973l-100 -543h-306zM905 1937l-53 -290h-260l53 290h260zM1348 1937l-54 -290h-260l53 290h261z" />
    <glyph glyph-name="Zcaron" unicode="&#x17d;" horiz-adv-x="1021" 
d="M1219 1272l-762 -1004h587l-49 -268h-960l37 199l800 1048h-614l49 269h957zM438 1929h271l135 -137l190 137h271l-406 -313h-180z" />
    <glyph glyph-name="zcaron" unicode="&#x17e;" horiz-adv-x="890" 
d="M29 0l34 186l664 732h-518l39 206h811l-39 -206l-633 -711h510l-39 -207h-829zM334 1587h270l135 -135l191 135h270l-405 -313h-181z" />
    <glyph glyph-name="florin" unicode="&#x192;" 
d="M1024 1067h184l-39 -207h-219l-268 -737q-33 -90 -54 -141t-59.5 -115.5t-85.5 -114.5q-87 -88 -196.5 -131t-223.5 -43q-75 0 -112 12l88 242q5 0 22.5 -3t30.5 -3q56 0 100.5 14.5t74 35.5t54.5 58.5t39.5 69.5t32.5 82l281 774h-185l39 207h220q76 235 221 358
q145 119 334 119q41 0 75 -6l-73 -217q-22 0 -58 -4q-80 -14 -131 -68q-11 -11 -21.5 -26t-17 -26.5t-16 -33.5t-13 -30.5t-13 -35t-11.5 -30.5z" />
    <glyph glyph-name="circumflex" unicode="&#x2c6;" horiz-adv-x="1136" 
d="M961 1610l280 -316h-268l-137 138l-191 -138h-270l405 316h181z" />
    <glyph glyph-name="caron" unicode="&#x2c7;" horiz-adv-x="1136" 
d="M430 1595h268l140 -135l188 135h270l-403 -313h-180z" />
    <glyph glyph-name="uni02C9" unicode="&#x2c9;" horiz-adv-x="1136" 
d="M1221 1550l-39 -209h-733l38 209h734z" />
    <glyph glyph-name="breve" unicode="&#x2d8;" horiz-adv-x="1136" 
d="M444 1569h207q29 -43 73 -61.5t128 -18.5q62 0 121.5 20.5t91.5 59.5h207q-26 -87 -98.5 -151t-167 -95t-199.5 -31q-160 0 -262 73.5t-101 203.5z" />
    <glyph glyph-name="dotaccent" unicode="&#x2d9;" horiz-adv-x="1136" 
d="M993 1591l-53 -291h-260l53 291h260z" />
    <glyph glyph-name="ring" unicode="&#x2da;" horiz-adv-x="1136" 
d="M883 1698h2q98 0 154.5 -71t37.5 -169q-19 -99 -102 -169t-182 -70q-100 0 -157 70.5t-38 168.5q19 100 102 170t183 70zM856 1561h-2q-41 0 -75 -30.5t-42 -72.5q-8 -40 16.5 -69t65.5 -29t76.5 29.5t42.5 70.5q8 42 -16 71.5t-66 29.5z" />
    <glyph glyph-name="ogonek" unicode="&#x2db;" horiz-adv-x="1136" 
d="M543 0h143q-2 -1 -20.5 -12.5t-23 -14t-21.5 -13.5t-23 -16.5t-19 -16.5t-19 -19.5t-14.5 -20t-13 -23t-6.5 -24.5q-9 -44 18 -76t72 -32q40 0 105 24l-27 -147q-4 -1 -20 -6t-21.5 -6.5t-20 -5.5t-24 -5.5t-23.5 -3.5t-28 -3t-29 -1q-112 0 -163 56.5t-35 142.5
q12 64 61 113.5t152 109.5z" />
    <glyph glyph-name="tilde" unicode="&#x2dc;" horiz-adv-x="1136" 
d="M1167 1561l62 -179q-119 -77 -238 -77q-40 0 -166 30q-126 29 -157 29q-82 0 -166 -53l-62 182q48 31 111.5 53.5t120.5 22.5q62 0 168 -29q96 -29 161 -29q98 0 166 50z" />
    <glyph glyph-name="hungarumlaut" unicode="&#x2dd;" horiz-adv-x="1136" 
d="M438 1389l375 301l125 -156l-395 -281zM879 1389l374 301l125 -156l-393 -281z" />
    <glyph glyph-name="uni03A9" unicode="&#x3a9;" horiz-adv-x="1566" 
d="M426 221l2 6q-97 105 -145 261.5t-13 351.5q27 143 100 271t177.5 223t241.5 150.5t284 55.5q89 0 166.5 -21t135.5 -58.5t105 -89t74.5 -112t45 -128.5t16.5 -138.5t-12 -140.5q-36 -197 -144.5 -359t-245.5 -266l-2 -6h306l-41 -221h-582l31 164q132 76 238.5 234
t150.5 397q21 101 11 194t-42 165t-98 115.5t-156 43.5q-176 0 -312.5 -149.5t-178.5 -379.5q-41 -223 7 -387.5t150 -232.5l-30 -164h-582l41 221h301z" />
    <glyph glyph-name="uni03BC" unicode="&#x3bc;" horiz-adv-x="1261" 
d="M49 -385l281 1509h268l-106 -575q-31 -157 8 -234q42 -98 168 -98q123 0 206 102q79 98 107 254l102 551h269l-209 -1124h-256l31 168q-117 -191 -291 -191q-94 0 -145.5 39t-71.5 90l-23 -120l-70 -371h-268z" />
    <glyph glyph-name="pi" unicode="&#x3c0;" horiz-adv-x="1320" 
d="M1438 907h-156l-108 -581q-38 -211 -31 -326h-266q-27 68 18 311l111 596h-308q-48 -209 -137.5 -482t-171.5 -425h-268q88 182 177.5 451t127.5 456q-141 0 -221 -22l2 180q108 74 373 74h923z" />
    <glyph glyph-name="uni2010" unicode="&#x2010;" horiz-adv-x="567" 
d="M133 717h567l-49 -264h-567z" />
    <glyph glyph-name="endash" unicode="&#x2013;" horiz-adv-x="1024" 
d="M205 717h880l-49 -264h-880z" />
    <glyph glyph-name="emdash" unicode="&#x2014;" horiz-adv-x="2048" 
d="M205 717h1904l-49 -264h-1904z" />
    <glyph glyph-name="quoteleft" unicode="&#x2018;" horiz-adv-x="624" 
d="M694 1516l76 -463h-203l-108 463h235z" />
    <glyph glyph-name="quoteright" unicode="&#x2019;" horiz-adv-x="624" 
d="M244 1053l248 463h235l-283 -463h-200z" />
    <glyph glyph-name="quotesinglbase" unicode="&#x201a;" horiz-adv-x="624" 
d="M14 -193l246 461h236l-281 -461h-201z" />
    <glyph glyph-name="quotedblleft" unicode="&#x201c;" horiz-adv-x="1042" 
d="M752 1516l75 -463h-200l-111 463h236zM1081 1516l76 -463h-201l-110 463h235z" />
    <glyph glyph-name="quotedblright" unicode="&#x201d;" horiz-adv-x="1042" 
d="M274 1053l248 463h234l-281 -463h-201zM604 1053l248 463h233l-280 -463h-201z" />
    <glyph glyph-name="quotedblbase" unicode="&#x201e;" horiz-adv-x="1042" 
d="M45 -193l246 461h233l-278 -461h-201zM375 -193l246 461h233l-279 -461h-200z" />
    <glyph glyph-name="dagger" unicode="&#x2020;" horiz-adv-x="1323" 
d="M1077 1516l-69 -381h333l-43 -232h-333l-248 -1329h-268l247 1329h-336l43 232h336l70 381h268z" />
    <glyph glyph-name="daggerdbl" unicode="&#x2021;" horiz-adv-x="1323" 
d="M1077 1516l-59 -322h334l-43 -229h-334l-131 -711h334l-43 -229h-334l-84 -451h-268l83 451h-335l43 229h335l132 711h-336l43 229h336l59 322h268z" />
    <glyph glyph-name="bullet" unicode="&#x2022;" horiz-adv-x="1327" 
d="M860 1051h2q114 0 179.5 -82.5t43.5 -198.5q-22 -117 -118.5 -199t-212.5 -82t-182 82.5t-44 198.5q21 115 117 198t215 83z" />
    <glyph glyph-name="ellipsis" unicode="&#x2026;" horiz-adv-x="2048" 
d="M203 0l55 303h281l-56 -303h-280zM885 0l55 303h281l-56 -303h-280zM1567 0l55 303h281l-56 -303h-280z" />
    <glyph glyph-name="perthousand" unicode="&#x2030;" horiz-adv-x="2490" 
d="M285 1184v2q28 150 152.5 254t275.5 104t235 -104t56 -256q-28 -151 -151.5 -256t-272.5 -105q-150 0 -236.5 105.5t-58.5 255.5zM469 1184v-2q-14 -73 27.5 -123.5t115.5 -50.5q73 0 133.5 51t73.5 127q13 75 -27 125.5t-114 50.5q-75 0 -135.5 -51t-73.5 -127zM958 332
v2q28 149 152.5 253.5t275.5 104.5t236 -104.5t57 -255.5t-153 -256t-275 -105t-236 104t-57 257zM1143 332v-2q-14 -74 27 -125t116 -51q74 0 135 51.5t74 126.5q13 76 -28 127t-115 51q-76 0 -135.5 -51.5t-73.5 -126.5zM1765 332v2q28 149 152.5 253.5t275.5 104.5
t236 -104.5t57 -255.5t-153.5 -256t-274.5 -105q-150 0 -236 104t-57 257zM1950 332v-2q-14 -74 27 -125t116 -51q74 0 135 51.5t74 126.5q13 76 -28 127t-115 51q-76 0 -135.5 -51.5t-73.5 -126.5zM1569 1516l-987 -1516h-193l985 1516h195z" />
    <glyph glyph-name="guilsinglleft" unicode="&#x2039;" horiz-adv-x="468" 
d="M145 578l281 378h195l-281 -378l139 -379h-194z" />
    <glyph glyph-name="guilsinglright" unicode="&#x203a;" horiz-adv-x="468" 
d="M399 956l138 -378l-279 -379h-197l279 379l-137 378h196z" />
    <glyph glyph-name="fraction" unicode="&#x2044;" horiz-adv-x="368" 
d="M-252 0l926 1516h225l-928 -1516h-223z" />
    <glyph glyph-name="Euro" unicode="&#x20ac;" horiz-adv-x="1146" 
d="M1397 1333l-135 -248q-49 203 -314 203q-121 0 -200.5 -91t-102.5 -214h559l-106 -195h-490l-20 -112h448l-106 -195h-371q-1 -49 8 -91.5t29.5 -80.5t60.5 -60t95 -22q103 0 202 40.5t150 107.5l-55 -299q-39 -34 -134 -70.5t-213 -36.5t-205.5 40.5t-136.5 111.5
t-68 162t-7 198h-187l105 195h112l21 112h-182l106 195h115q21 112 79.5 220.5t133.5 180.5q172 162 407 162q84 0 158 -22t122.5 -56.5t79 -69t42.5 -65.5z" />
    <glyph glyph-name="afii61289" unicode="&#x2113;" horiz-adv-x="1130" 
d="M1051 397l92 -114q-215 -303 -514 -303q-95 0 -163.5 28t-105 78t-51.5 112t-10 138q0 8 4 24q-7 -5 -131 -88l-43 146q17 12 68 46t81 56.5t58 46.5l102 545q26 141 77.5 249.5t118.5 173.5t142.5 97.5t157.5 32.5q78 0 132.5 -30t79.5 -82.5t32.5 -122.5t-9.5 -150
q-35 -185 -179.5 -368.5t-393.5 -385.5l-18 -90q-18 -114 26 -175.5t127 -61.5q84 0 167.5 57t152.5 141zM707 1122l-66 -348q312 292 356 516q32 180 -88 180q-58 0 -113 -81.5t-89 -266.5z" />
    <glyph glyph-name="trademark" unicode="&#x2122;" horiz-adv-x="2027" 
d="M883 606l168 910h264l127 -631l356 631h262l-168 -910h-194l123 670l-365 -670h-137l-119 666l-123 -666h-194zM352 606l135 735h-202l32 175h613l-33 -175h-203l-135 -735h-207z" />
    <glyph glyph-name="Omega" unicode="&#x2126;" horiz-adv-x="1566" 
d="M426 221l2 6q-97 105 -145 261.5t-13 351.5q27 143 100 271t177.5 223t241.5 150.5t284 55.5q89 0 166.5 -21t135.5 -58.5t105 -89t74.5 -112t45 -128.5t16.5 -138.5t-12 -140.5q-36 -197 -144.5 -359t-245.5 -266l-2 -6h306l-41 -221h-582l31 164q132 76 238.5 234
t150.5 397q21 101 11 194t-42 165t-98 115.5t-156 43.5q-176 0 -312.5 -149.5t-178.5 -379.5q-41 -223 7 -387.5t150 -232.5l-30 -164h-582l41 221h301z" />
    <glyph glyph-name="estimated" unicode="&#x212e;" horiz-adv-x="2181" 
d="M2107 735h-1415q-12 0 -12 -8v-428q0 -24 18 -49q106 -109 244.5 -171.5t292.5 -62.5q165 0 311.5 69.5t251.5 190.5h125q-120 -139 -301.5 -221t-388.5 -82q-178 0 -339.5 62t-278.5 167t-186 250.5t-69 305.5t69 305.5t186 250.5t278.5 167.5t339.5 62.5t340 -62.5
t279 -167.5t186 -250.5t69 -305.5v-23zM1786 793v430q0 30 -21 51q-106 104 -242.5 163.5t-287.5 59.5t-289 -61.5t-244 -169.5q-22 -22 -22 -54v-419q0 -5 4 -10t8 -5h1084q10 0 10 15z" />
    <glyph glyph-name="partialdiff" unicode="&#x2202;" horiz-adv-x="1263" 
d="M481 1380l-41 203q191 125 428 125q123 0 221.5 -52.5t164 -156t84.5 -258.5t-17 -360q-50 -268 -160 -470t-272 -315.5t-354 -113.5q-75 0 -137 22t-103.5 59.5t-72 88t-42.5 107.5t-15.5 118t9.5 119q31 169 119.5 299.5t209 199t251.5 68.5q64 0 118.5 -19t89.5 -49
t56 -57.5t31 -52.5h2q3 8 6 21.5t6 29.5t4 22q21 105 9.5 200.5t-45 167.5t-96 114.5t-144.5 42.5q-154 0 -310 -103zM604 207h2q80 0 158 70.5t132.5 170t86.5 209.5q-3 28 -18 59t-40 60.5t-66.5 48.5t-90.5 19q-111 0 -204 -106t-120 -251q-22 -119 22 -199.5t138 -80.5z
" />
    <glyph glyph-name="uni2206" unicode="&#x2206;" horiz-adv-x="1447" 
d="M57 0l29 160l766 1388h328l235 -1384l-31 -164h-1327zM383 221h747l-122 647q-5 40 -28 187t-26 200h-6q-16 -37 -84 -165t-96 -189z" />
    <glyph glyph-name="product" unicode="&#x220f;" horiz-adv-x="1865" 
d="M1812 1264h-225v-1473h-276v1473h-475v-1473h-277v1473h-225v252h1478v-252z" />
    <glyph glyph-name="summation" unicode="&#x2211;" horiz-adv-x="1507" 
d="M1468 -209h-1136v176l530 686l-512 668v195h1082v-238h-705v-6l449 -574l-498 -643v-8h790v-256z" />
    <glyph glyph-name="minus" unicode="&#x2212;" horiz-adv-x="1228" 
d="M172 387l49 260h1028l-49 -260h-1028z" />
    <glyph glyph-name="uni2215" unicode="&#x2215;" horiz-adv-x="368" 
d="M-252 0l926 1516h225l-928 -1516h-223z" />
    <glyph glyph-name="uni2219" unicode="&#x2219;" horiz-adv-x="624" 
d="M578 670l-58 -301h-280l57 301h281z" />
    <glyph glyph-name="radical" unicode="&#x221a;" horiz-adv-x="1587" 
d="M1610 1817l-496 -2122h-223l-328 950l-162 -63l-47 153l375 152l229 -692q4 -17 46 -189l2 -2q26 162 34 203l375 1610h195z" />
    <glyph glyph-name="infinity" unicode="&#x221e;" horiz-adv-x="1882" 
d="M1780 627v-2q0 -86 -30 -159t-79.5 -120.5t-112.5 -73.5t-131 -26q-101 0 -194 56t-197 192q-99 -122 -190.5 -185t-212.5 -63q-141 0 -243.5 104t-102.5 264q0 164 103.5 269.5t260.5 105.5q114 0 207 -62.5t186 -181.5q86 99 128 136q124 108 268 108
q147 -2 243.5 -101t96.5 -261zM651 399h4q35 0 70.5 14t60.5 30t61 51t52 53t53 61q-82 109 -115 142q-89 90 -194 90q-91 0 -145 -64t-54 -164q0 -89 59.5 -151t147.5 -62zM1425 840h-4q-37 0 -72.5 -13t-71.5 -43t-56 -49t-57 -61.5t-44 -50.5q104 -128 169 -176t145 -48
q85 0 136.5 67t51.5 148q0 99 -55 162.5t-142 63.5z" />
    <glyph glyph-name="integral" unicode="&#x222b;" horiz-adv-x="1148" 
d="M1104 1849l-29 -190q-36 18 -78 18q-72 0 -110 -55q-60 -75 -60 -365q0 -171 16.5 -506t16.5 -534q0 -288 -80 -434q-42 -81 -117.5 -119.5t-164.5 -38.5q-98 0 -170 35l34 197q66 -23 97 -23q61 0 96 43q30 41 44.5 118.5t14.5 219.5q0 201 -16 544t-16 525
q0 189 31 303t102 189q44 49 112.5 73.5t143.5 24.5q71 0 133 -25z" />
    <glyph glyph-name="approxequal" unicode="&#x2248;" horiz-adv-x="1390" 
d="M1206 983l99 -92q-55 -103 -132 -163t-167 -60q-63 0 -115 19.5t-131 66.5q-57 37 -98.5 55t-90.5 18q-28 0 -54 -9.5t-44.5 -21.5t-40 -37t-33.5 -41t-34 -48l-101 92q51 99 136.5 161t183.5 62q30 0 57 -4t56.5 -16.5t41 -17t45.5 -23.5l33 -19q8 -5 31 -19t30 -18
t25 -14t27 -13t23.5 -8t27.5 -6.5t27 -1.5q59 0 103.5 39.5t94.5 118.5zM1206 575l99 -92q-56 -103 -132 -163t-167 -60q-61 0 -112.5 19.5t-133.5 66.5q-46 29 -65.5 40t-55 23.5t-68.5 12.5q-35 0 -64 -12t-56.5 -40t-42 -47t-43.5 -61l-101 92q51 99 137 161.5t183 62.5
q22 0 42.5 -2t41 -8.5t33.5 -10t34 -14t27.5 -14t29 -16t23.5 -13.5q12 -7 38.5 -23.5t40 -23.5t34 -17t39.5 -14t39 -4q61 0 103.5 37t96.5 120z" />
    <glyph glyph-name="notequal" unicode="&#x2260;" horiz-adv-x="1423" 
d="M1104 1116l-84 -192h299v-162h-361l-129 -295h490v-160h-553l-109 -250l-127 54l88 196h-296v160h358l129 295h-487v162h548l107 243z" />
    <glyph glyph-name="lessequal" unicode="&#x2264;" horiz-adv-x="1460" 
d="M1350 217l-981 485v175l979 485v-186l-820 -383v-5l822 -385v-186zM1358 -29h-998v164h998v-164z" />
    <glyph glyph-name="greaterequal" unicode="&#x2265;" horiz-adv-x="1460" 
d="M373 1362l981 -485v-175l-981 -485v186l819 385v5l-819 383v186zM1354 -29h-992v164h992v-164z" />
    <glyph glyph-name="lozenge" unicode="&#x25ca;" horiz-adv-x="1587" 
d="M1481 756l-439 -862h-221l-426 862l436 866h224zM1233 750l-250 518q-29 75 -41 129h-6q-11 -43 -43 -129l-252 -506l254 -526q33 -101 37 -121h8q21 82 39 116z" />
    <glyph glyph-name="fi" unicode="&#xfb01;" horiz-adv-x="1124" 
d="M893 918h-305l-170 -918h-268l169 918h-139l39 206h139l11 64q13 69 39 124.5t56.5 92t73.5 63t81 41t89.5 22.5t88 10t86.5 3l-39 -207q-29 0 -45.5 -1t-47 -9t-49.5 -23.5t-38 -47t-27 -76.5l-10 -56h573l-209 -1124h-268zM1227 1276h-269l46 240h268z" />
    <glyph glyph-name="fl" unicode="&#xfb02;" horiz-adv-x="1124" 
d="M893 918h-305l-170 -918h-268l169 918h-139l39 206h139l11 64q13 69 39 124.5t56.5 92t73.5 63t81 41t89.5 22.5t88 10t86.5 3l-39 -207q-29 0 -45.5 -1t-47 -9t-49.5 -23.5t-38 -47t-27 -76.5l-10 -56h305l72 389h268l-281 -1513h-268z" />
    <glyph glyph-name="a.superior" horiz-adv-x="817" 
d="M1006 1524l-113 -611h-166l16 88q-76 -106 -215 -106q-132 0 -202 94.5t-45 229.5q27 146 135 235.5t237 89.5q128 0 170 -108l17 88h166zM446 1217v-3q-7 -34 3.5 -69.5t45.5 -63.5t89 -28q107 0 170 92q23 40 28 74q8 39 0 75q-8 40 -44.5 66t-92.5 26q-73 0 -130 -50
t-69 -119z" />
    <glyph glyph-name="o.superior" horiz-adv-x="817" 
d="M305 1217v2q12 61 44.5 118t81 103.5t117.5 74.5t146 29q103 0 170.5 -49t90 -121.5t6.5 -154.5q-23 -129 -131.5 -226.5t-256.5 -97.5q-101 0 -168.5 48t-91 120.5t-8.5 153.5zM471 1219v-2q-12 -68 26.5 -116t104.5 -48t123.5 48t69.5 118q13 70 -25 118.5t-106 48.5
q-66 0 -123 -47.5t-70 -119.5z" />
    <glyph glyph-name="one.superior" horiz-adv-x="804" 
d="M797 1516l-168 -910h-203l135 733h-170l33 177h373z" />
    <glyph glyph-name="two.superior" horiz-adv-x="804" 
d="M881 782l-33 -176h-664l29 160q179 135 354 270q79 61 117 106.5t47 94.5q20 119 -88 119q-61 0 -100 -49.5t-51 -116.5h-203q26 131 98 213q119 131 301 131q158 0 229 -71t46 -203q-14 -83 -56 -143t-125 -126q-142 -113 -260 -209h359z" />
    <glyph glyph-name="three.superior" horiz-adv-x="804" 
d="M215 885h211q-3 -54 25 -86.5t88 -32.5q62 0 103 33.5t52 91.5q7 44 -20.5 79.5t-95.5 35.5h-99l29 151h51q55 0 102.5 28.5t55.5 78.5q7 36 -10.5 63.5t-61.5 28.5q-90 0 -117 -96h-206q31 154 159 221q93 53 203 53q127 0 193.5 -72t48.5 -172q-9 -49 -47 -101.5
t-105 -86.5q74 -26 108.5 -87.5t20.5 -137.5q-22 -121 -139 -205t-260 -84q-87 0 -160 33t-106 92q-36 68 -23 172z" />
    </font>
</defs>
</svg>
