<?xml version="1.0" standalone="no"?>
<!DOCTYPE svg PUBLIC "-//W3C//DTD SVG 1.1//EN" "http://www.w3.org/Graphics/SVG/1.1/DTD/svg11.dtd" >
<svg xmlns="http://www.w3.org/2000/svg" xmlns:xlink="http://www.w3.org/1999/xlink" version="1.1">
<metadata>
Created by FontForge 20170731 at Fri Aug 27 17:58:37 2021
 By Aleksey,,,
Copyright (c) 1993, 1994, 2001 Adobe Systems Incorporated.  All Rights Reserved.
</metadata>
<defs>
<font id="ITCAvantGardeStd-Md" horiz-adv-x="1208" >
  <font-face 
    font-family="ITC Avant Garde Std Md"
    font-weight="500"
    font-stretch="normal"
    units-per-em="2048"
    panose-1="2 11 6 2 2 2 2 2 2 4"
    ascent="1638"
    descent="-410"
    x-height="1114"
    cap-height="1516"
    bbox="-260 -549 2363 2013"
    underline-thickness="102"
    underline-position="-307"
    unicode-range="U+0020-FB02"
  />
<missing-glyph horiz-adv-x="1024" 
d="M0 0v1434h1024v-1434h-1024zM512 809l348 522h-696zM573 717l349 -522v1044zM164 102h696l-348 523zM102 1239v-1044l349 522z" />
    <glyph glyph-name="fi" unicode="fi" horiz-adv-x="1040" 
d="M688 948h-313v-948h-213v948h-152v166h152v76q0 70 15.5 125.5t39 91.5t61 62.5t71 40t80 22t77.5 10t74 2.5v-168q-25 -1 -35 -1.5t-36.5 -4.5t-40 -10.5t-34.5 -21t-31.5 -34.5t-19 -52t-8.5 -72v-66h526v-1114h-213v948zM901 1290h-213v226h213v-226z" />
    <glyph glyph-name="fl" unicode="fl" horiz-adv-x="1040" 
d="M688 948h-313v-948h-213v948h-152v166h152v76q0 70 15.5 125.5t39 91.5t61 62.5t71 40t80 22t77.5 10t74 2.5v-168q-25 -1 -35 -1.5t-36.5 -4.5t-40 -10.5t-34.5 -21t-31.5 -34.5t-19 -52t-8.5 -72v-66h313v399h213v-1513h-213v948z" />
    <glyph glyph-name=".notdef" horiz-adv-x="1024" 
d="M0 0v1434h1024v-1434h-1024zM512 809l348 522h-696zM573 717l349 -522v1044zM164 102h696l-348 523zM102 1239v-1044l349 522z" />
    <glyph glyph-name=".null" horiz-adv-x="0" 
 />
    <glyph glyph-name="nonmarkingreturn" horiz-adv-x="682" 
 />
    <glyph glyph-name="space" unicode=" " horiz-adv-x="604" 
 />
    <glyph glyph-name="exclam" unicode="!" horiz-adv-x="614" 
d="M418 1516v-1088h-221v1088h221zM418 266v-266h-221v266h221z" />
    <glyph glyph-name="quotedbl" unicode="&#x22;" horiz-adv-x="829" 
d="M338 909h-166v607h166v-607zM657 909h-168v607h168v-607z" />
    <glyph glyph-name="numbersign" unicode="#" 
d="M821 510l-57 -418h-150l58 418h-219l-58 -418h-153l59 418h-250l17 145h254l28 209h-252l19 148h254l53 381h151l-53 -381h219l54 381h151l-53 -381h264l-18 -148h-269l-28 -209h264l-16 -145h-269zM692 655l29 209h-219l-29 -209h219z" />
    <glyph glyph-name="dollar" unicode="$" 
d="M702 1661v-188q143 -26 223 -125t83 -238h-203q-9 89 -66.5 142t-128.5 53q-77 0 -133.5 -56.5t-56.5 -140.5q0 -32 8.5 -58.5t19.5 -46t35.5 -38.5t43.5 -31t57.5 -27.5t63 -24t73.5 -24.5q147 -53 234 -153.5t87 -235.5q0 -139 -91.5 -255t-248.5 -151v-200h-180v200
q-107 13 -189 73.5t-123 145t-44 179.5h221q7 -106 72 -167t151 -61q90 0 150.5 62.5t60.5 150.5q0 36 -10.5 67.5t-25.5 54.5t-43.5 45t-51 35.5t-62.5 29.5t-64.5 24.5t-69.5 22.5q-293 89 -293 362q0 157 92 257.5t229 128.5v188h180z" />
    <glyph glyph-name="percent" unicode="%" horiz-adv-x="1630" 
d="M61 1190v2q0 148 102 250t251 102t250.5 -102.5t101.5 -251.5t-101.5 -250.5t-250.5 -101.5q-148 0 -250.5 101.5t-102.5 250.5zM213 1190v-2q0 -86 57 -144.5t144 -58.5q86 0 144 59t58 148q0 88 -57.5 146.5t-144.5 58.5t-144 -58.5t-57 -148.5zM862 326v2
q0 148 102.5 250t252.5 102q148 0 250 -102.5t102 -251.5q0 -150 -102.5 -252.5t-249.5 -102.5q-150 0 -252.5 101.5t-102.5 253.5zM1012 326v-2q0 -87 58 -146t147 -59q86 0 143 59t57 148t-56.5 146.5t-143.5 57.5q-89 0 -147 -58t-58 -146zM1274 1516l-766 -1516h-160
l766 1516h160z" />
    <glyph glyph-name="ampersand" unicode="&#x26;" horiz-adv-x="1517" 
d="M1184 920h225l-260 -494l303 -309l-147 -144l-271 279q-33 -64 -70 -111.5t-89 -87.5t-123.5 -61t-159.5 -21q-217 0 -351.5 127t-134.5 305q0 70 23 133t55.5 107.5t82 86t88 66t87.5 50.5q-85 91 -128 168.5t-46 169.5q0 150 108.5 255t266.5 105t264.5 -103.5
t106.5 -250.5q0 -49 -11.5 -92t-34 -77t-46 -60.5t-59 -51t-60 -39.5t-60.5 -34l263 -267zM645 1364h-2q-71 0 -117.5 -50t-46.5 -118q0 -19 4 -38t9 -34t16 -33.5t18 -29t23 -29.5t22 -26t24.5 -26.5t22.5 -23.5q107 60 153 108t46 128q0 70 -48 121t-124 51zM891 391
l-316 322q-235 -117 -235 -291q0 -103 74 -174.5t186 -71.5q73 0 128.5 28t90.5 71.5t72 115.5z" />
    <glyph glyph-name="quotesingle" unicode="'" horiz-adv-x="477" 
d="M322 909h-166v607h166v-607z" />
    <glyph glyph-name="parenleft" unicode="(" horiz-adv-x="923" 
d="M846 1544v-239q-85 -47 -163 -123.5t-142 -178t-102 -233.5t-38 -272q0 -182 64 -347.5t163 -279t218 -178.5v-242q-167 73 -298.5 190t-213.5 256.5t-124 292.5t-42 310q0 154 43 308t125 294.5t213.5 257t296.5 184.5z" />
    <glyph glyph-name="parenright" unicode=")" horiz-adv-x="923" 
d="M78 -549v238q86 47 164 123.5t142 178t102 233.5t38 272q0 269 -130 486t-316 318v244q167 -74 298.5 -191t213.5 -256.5t124 -292.5t42 -310q0 -122 -26.5 -245.5t-82 -243t-134.5 -223.5t-191 -190.5t-244 -140.5z" />
    <glyph glyph-name="asterisk" unicode="*" horiz-adv-x="1284" 
d="M717 1516l-37 -287l231 174l70 -129l-258 -109l260 -108l-76 -133l-229 176l39 -285h-150l37 287l-227 -178l-76 133l260 110l-260 107l72 129l233 -172l-39 285h150z" />
    <glyph glyph-name="plus" unicode="+" horiz-adv-x="1228" 
d="M717 1032v-414h411v-206h-411v-412h-205v412h-412v206h412v414h205z" />
    <glyph glyph-name="comma" unicode="," horiz-adv-x="608" 
d="M418 268l-170 -424h-185l130 424h225z" />
    <glyph glyph-name="hyphen" unicode="-" horiz-adv-x="561" 
d="M0 686h561v-211h-561v211z" />
    <glyph glyph-name="period" unicode="." horiz-adv-x="608" 
d="M418 266v-266h-223v266h223z" />
    <glyph glyph-name="slash" unicode="/" horiz-adv-x="1144" 
d="M143 -205l621 1721h240l-621 -1721h-240z" />
    <glyph glyph-name="zero" unicode="0" 
d="M74 506v495q0 125 39.5 224t98 157t133 96.5t138.5 52t121 13.5q71 0 142.5 -18.5t142 -60.5t125 -102.5t88 -152t33.5 -200.5v-504q0 -117 -37 -212t-93.5 -153.5t-129 -98t-139.5 -55.5t-128 -16q-64 0 -133 16.5t-141.5 56.5t-129.5 99t-93.5 153.5t-36.5 209.5z
M313 1010v-510q0 -133 80 -224.5t211 -91.5q122 0 205.5 93t83.5 223v516q0 38 -8 78t-28.5 83.5t-52 76.5t-84.5 55t-120 22q-132 0 -209.5 -92t-77.5 -229z" />
    <glyph glyph-name="one" unicode="1" 
d="M506 0v1311h-287v205h529v-1516h-242z" />
    <glyph glyph-name="two" unicode="2" 
d="M111 0v190q78 73 234 220.5t235 220.5q126 116 170 166q109 129 114 262q0 126 -73.5 199t-188.5 73q-119 0 -187 -89.5t-71 -237.5h-231q7 222 118 360q39 52 91.5 89.5t107 56t101.5 26.5t92 8q219 0 351 -135.5t130 -333.5q-3 -125 -57.5 -227t-180.5 -225
q-284 -280 -426 -418h670v-205h-999z" />
    <glyph glyph-name="three" unicode="3" 
d="M385 1128h-238q3 88 32.5 160t75 118.5t104 78.5t117.5 45.5t118 13.5q182 0 301 -110.5t119 -276.5q0 -210 -205 -319q77 -27 135 -70t87.5 -85.5t47.5 -92.5t22.5 -82t4.5 -62q0 -203 -149.5 -339t-368.5 -136q-124 0 -240 51t-184 144q-86 123 -90 280h243
q6 -112 83 -186.5t194 -75.5q125 0 197.5 78.5t72.5 196.5q0 116 -88 192t-217 76h-113v182h72q114 0 185 64t71 151q0 89 -51 148t-137 59q-51 0 -90.5 -18.5t-62 -49.5t-34.5 -65t-14 -70z" />
    <glyph glyph-name="four" unicode="4" 
d="M743 0v279h-723v180l719 1057h238v-1045h162v-192h-162v-279h-234zM268 471h490v752z" />
    <glyph glyph-name="five" unicode="5" 
d="M260 1516h768v-205h-582l-67 -371q35 24 59.5 37t79.5 28t119 15q96 0 179 -30.5t141.5 -81.5t100.5 -117.5t62.5 -138.5t20.5 -144q0 -99 -38 -194t-106 -172t-173.5 -124t-229.5 -47q-206 0 -360.5 123.5t-184.5 329.5h242q24 -107 110 -173.5t187 -66.5q127 0 220 94
t93 224t-90.5 223.5t-222.5 93.5q-165 0 -266 -151l-197 49z" />
    <glyph glyph-name="six" unicode="6" 
d="M602 1516h277l-293 -420q-13 -18 -37.5 -52.5t-32.5 -46.5q24 14 68.5 26.5t87.5 12.5q91 0 177 -35t155 -99t111 -163t42 -217q0 -154 -73 -280.5t-198.5 -198.5t-277.5 -72q-136 0 -247 50t-183 139q-63 73 -94 169t-31 189q0 112 36.5 206t98.5 187zM291 500v-2
q0 -134 89 -224t220 -90q134 0 224.5 92.5t90.5 225.5q0 142 -92 231.5t-219 89.5q-56 0 -110.5 -21t-100 -59.5t-74 -102t-28.5 -140.5z" />
    <glyph glyph-name="seven" unicode="7" 
d="M154 1516h905v-189l-596 -1327h-264l610 1311h-655v205z" />
    <glyph glyph-name="eight" unicode="8" 
d="M156 1151v2q0 75 30.5 144.5t86 124.5t142 88.5t189.5 33.5t189 -33t141.5 -87.5t86 -125t30.5 -147.5q0 -108 -53.5 -187t-127.5 -120q117 -46 180.5 -150.5t63.5 -236.5q-2 -208 -146.5 -347t-363.5 -139q-220 0 -365 139t-147 347q2 132 65 235.5t181 151.5
q-74 42 -128 120.5t-54 186.5zM391 1133v-3q0 -88 62 -148t151 -60t151 60.5t62 150.5t-62.5 151.5t-150.5 61.5t-150.5 -61.5t-62.5 -151.5zM334 459v-2q0 -109 77.5 -191t192.5 -82q116 0 193 82.5t77 192.5q0 111 -77 192.5t-193 81.5q-117 0 -193.5 -81t-76.5 -193z" />
    <glyph glyph-name="nine" unicode="9" 
d="M608 0h-276l293 420q11 17 34 49.5t35 48.5q-24 -14 -68 -26.5t-87 -12.5q-92 0 -178.5 35t-155.5 99t-110.5 163t-41.5 217q0 154 73 280.5t198.5 198.5t277.5 72q135 0 247 -49.5t183 -138.5q63 -73 93 -169t30 -190q0 -195 -133 -393zM918 1016v2q0 135 -89 224
t-221 89q-133 0 -223 -91.5t-90 -225.5q0 -141 90.5 -230.5t216.5 -89.5q58 0 113 21t101 59.5t74 101.5t28 140z" />
    <glyph glyph-name="colon" unicode=":" horiz-adv-x="608" 
d="M418 1114v-266h-223v266h223zM418 266v-266h-223v266h223z" />
    <glyph glyph-name="semicolon" unicode=";" horiz-adv-x="608" 
d="M416 1114v-266h-223v266h223zM420 268l-182 -424h-175l132 424h225z" />
    <glyph glyph-name="less" unicode="&#x3c;" horiz-adv-x="1228" 
d="M98 618l1032 457v-225l-813 -334l813 -334v-225l-1032 457v204z" />
    <glyph glyph-name="equal" unicode="=" horiz-adv-x="1228" 
d="M100 856h1028v-205h-1028v205zM100 381h1028v-207h-1028v207z" />
    <glyph glyph-name="greater" unicode="&#x3e;" horiz-adv-x="1228" 
d="M98 182l813 336l-813 332v225l1032 -457v-204l-1032 -457v225z" />
    <glyph glyph-name="question" unicode="?" horiz-adv-x="1161" 
d="M659 418h-225q3 109 46.5 198t154.5 195q93 93 132 150t40 129q0 99 -63.5 165t-168.5 66q-97 0 -164.5 -59t-80.5 -160q-4 -36 -4 -51h-234v45q9 139 82.5 243t181 154.5t230.5 50.5q102 0 190 -36t147.5 -96t93.5 -138.5t34 -163.5q0 -43 -8.5 -82.5t-28.5 -77
t-37.5 -64.5t-51.5 -63.5t-52 -54.5t-58 -55q-96 -92 -125 -157.5t-31 -137.5zM657 266v-266h-223v266h223z" />
    <glyph glyph-name="at" unicode="@" horiz-adv-x="1576" 
d="M1346 299l47 -104q-60 -62 -141 -108.5t-160 -70.5t-145.5 -35.5t-119.5 -11.5q-152 0 -283 45.5t-223 122.5t-157.5 177.5t-97 211t-31.5 222.5q0 157 58.5 302.5t161 255t252.5 175t322 65.5q144 0 274.5 -48t228 -132.5t155 -208.5t57.5 -268q0 -123 -42.5 -231.5
t-107.5 -178.5t-141 -110.5t-145 -40.5q-42 0 -78 13t-67 48t-39 88q-96 -145 -252 -145q-49 0 -96.5 20t-88 57.5t-65.5 100.5t-25 141q0 122 54.5 239.5t152 194t209.5 76.5q160 0 211 -143l33 115h143l-131 -496q0 -2 -9 -42.5t-9 -57.5q-5 -80 79 -80q42 0 90.5 31
t92 84.5t72 137t28.5 177.5q0 122 -48 224t-128.5 168.5t-184 103t-216.5 36.5q-138 0 -261 -53t-210 -143.5t-138 -215t-51 -262.5q0 -89 23.5 -178t75.5 -174.5t126 -151t184 -105.5t240 -40q143 0 284 51t237 152zM545 655v-2q0 -53 15 -92.5t40 -60t51 -30t54 -9.5
q89 0 145 59t84 139q2 7 13.5 40.5t18 55.5t13 53t6.5 52q-1 75 -46.5 123.5t-109.5 48.5q-70 0 -135.5 -51.5t-107 -139.5t-41.5 -186z" />
    <glyph glyph-name="A" unicode="A" horiz-adv-x="1486" 
d="M418 358l-139 -358h-263l623 1516h219l612 -1516h-262l-143 358h-647zM999 553l-260 682l-256 -682h516z" />
    <glyph glyph-name="B" unicode="B" horiz-adv-x="1226" 
d="M145 0v1516h453q208 0 322 -82q153 -94 153 -308q0 -217 -192 -317q74 -24 129 -65.5t82 -82.5t43 -90.5t19 -78.5t3 -58q-2 -113 -49.5 -203.5t-134.5 -142.5q-77 -53 -157 -70.5t-226 -17.5h-445zM387 1303v-416h199q101 0 153 24q103 56 103 187q0 65 -29.5 111
t-73.5 67q-55 27 -159 27h-193zM387 684v-471h244q98 0 162 25q130 58 133 211q0 75 -36 128.5t-97 79.5q-41 17 -80 22t-103 5h-223z" />
    <glyph glyph-name="C" unicode="C" horiz-adv-x="1660" 
d="M1337 461h254q-72 -212 -269.5 -351t-449.5 -139q-223 0 -406 107.5t-284.5 288t-101.5 393.5q0 124 36.5 241t107 215t165.5 171.5t219 115t262 41.5q117 -1 224 -33t186 -82.5t143.5 -117t105.5 -132.5t64 -132h-256q-16 33 -41.5 67.5t-68.5 74t-93 70t-120 51
t-146 21.5q-157 0 -283 -78.5t-194.5 -209t-68.5 -283.5q0 -117 41 -222.5t113 -183.5t174.5 -124t219.5 -46q83 0 158 24.5t123 56t91.5 76t61 69.5t33.5 51z" />
    <glyph glyph-name="D" unicode="D" horiz-adv-x="1482" 
d="M145 0v1516h469q88 0 162 -9t160 -33t163.5 -75.5t137.5 -128.5q166 -198 166 -510q0 -134 -29 -249t-90 -209.5t-151 -161.5t-217.5 -103.5t-284.5 -36.5h-486zM387 1303v-1090h256q257 0 388.5 148t131.5 395q0 238 -123 387q-139 160 -395 160h-258z" />
    <glyph glyph-name="E" unicode="E" horiz-adv-x="1099" 
d="M145 0v1516h848v-213h-606v-431h598v-210h-598v-449h606v-213h-848z" />
    <glyph glyph-name="F" unicode="F" horiz-adv-x="1009" 
d="M145 0v1516h791v-213h-549v-443h541v-211h-541v-649h-242z" />
    <glyph glyph-name="G" unicode="G" horiz-adv-x="1748" 
d="M1604 1085h-273q-62 87 -139 144q-142 102 -320 102q-145 0 -270.5 -67.5t-205 -199.5t-79.5 -302q0 -107 30.5 -200t83 -161.5t123 -118t151.5 -74t167 -24.5q206 0 351 113q142 108 178 270h-653v197h933q0 -192 -67 -340q-51 -110 -133.5 -197.5t-181.5 -142.5
t-207.5 -84t-217.5 -29q-166 0 -313.5 61.5t-253.5 167t-167.5 252t-61.5 310.5q0 166 63.5 312.5t171 249t254.5 161.5t310 59q241 0 442.5 -129.5t284.5 -329.5z" />
    <glyph glyph-name="H" unicode="H" horiz-adv-x="1429" 
d="M387 0h-242v1516h242v-639h653v639h242v-1516h-242v664h-653v-664z" />
    <glyph glyph-name="I" unicode="I" horiz-adv-x="534" 
d="M145 0v1516h242v-1516h-242z" />
    <glyph glyph-name="J" unicode="J" horiz-adv-x="1069" 
d="M922 1516v-990q0 -215 -43 -311q-49 -100 -140 -160q-124 -84 -276 -84q-27 0 -59.5 5t-79.5 16.5t-91.5 36.5t-87 60.5t-75 93t-47.5 128.5q-7 34 -11 88h258q0 -9 4 -37q23 -89 80.5 -133.5t120.5 -44.5q71 1 118 35.5t66 83.5q23 68 23 170v1043h240z" />
    <glyph glyph-name="K" unicode="K" horiz-adv-x="1290" 
d="M182 0v1516h242v-717l555 717h256l-590 -756l649 -760h-297l-573 698v-698h-242z" />
    <glyph glyph-name="L" unicode="L" horiz-adv-x="937" 
d="M152 0v1516h241v-1303h535v-213h-776z" />
    <glyph glyph-name="M" unicode="M" horiz-adv-x="1890" 
d="M371 0h-226v1516h332l471 -1174l465 1174h330v-1516h-223l6 1278l-502 -1278h-158l-501 1278z" />
    <glyph glyph-name="N" unicode="N" horiz-adv-x="1536" 
d="M373 1516l786 -1154l-4 1154h234v-1516h-222l-792 1155l4 -1155h-234v1516h228z" />
    <glyph glyph-name="O" unicode="O" horiz-adv-x="1742" 
d="M78 748v2q0 140 41 265.5t115 220.5t173 165t217.5 106.5t245.5 36.5q167 0 315 -62t253 -167t166 -250.5t61 -306.5t-61 -306.5t-166 -251t-254 -167.5t-316 -62t-315.5 63t-251.5 168.5t-163 248t-60 297.5zM317 760v-2q0 -156 71 -287.5t199.5 -209t286.5 -77.5
q120 0 224.5 48t174.5 127.5t110 183t40 213.5q0 111 -40 215t-110.5 184t-175 128t-225.5 48t-225.5 -46.5t-176 -124.5t-112.5 -182t-41 -218z" />
    <glyph glyph-name="P" unicode="P" horiz-adv-x="1187" 
d="M137 1516h432q172 0 264 -23.5t162 -79.5q78 -61 123 -162t45 -211q0 -109 -43.5 -212t-113.5 -160q-78 -62 -169.5 -87.5t-244.5 -25.5h-213v-555h-242v1516zM379 1303v-535h209q153 0 235 51q48 27 78.5 85t30.5 132t-31 131t-80 86q-48 29 -104 39.5t-137 10.5h-201z
" />
    <glyph glyph-name="Q" unicode="Q" horiz-adv-x="1787" 
d="M1778 172v-199q-54 3 -115 9q-82 7 -150.5 28.5t-102.5 41.5t-77 52q-207 -133 -444 -133q-142 0 -269.5 43t-223 118t-165 174t-105.5 214t-36 234q0 157 59 301.5t162 252t252.5 172t319.5 64.5t320 -63.5t254 -169.5t164 -249t60 -298q0 -82 -14.5 -157t-33 -124.5
t-48.5 -100.5t-47 -73t-43 -53q58 -39 121.5 -57.5t161.5 -26.5zM885 1331h-2q-211 0 -361.5 -136t-175.5 -353q-5 -83 10 -148q156 51 281 51q210 0 379 -106q18 -11 33.5 -21t35 -25t30.5 -23t38.5 -31t39.5 -33t53 -44.5t61 -51.5q135 138 135 354q0 123 -44.5 230
t-120 180t-177.5 115t-215 42zM887 184h2q82 0 154.5 22.5t115.5 53.5q-57 62 -182 160q-166 121 -365 121q-122 0 -221 -43q34 -73 84 -130t102 -90.5t111 -55.5t106.5 -30t92.5 -8z" />
    <glyph glyph-name="R" unicode="R" horiz-adv-x="1247" 
d="M137 0v1516h428q312 0 441 -89q93 -61 146.5 -171t53.5 -238q0 -164 -86 -289q-55 -76 -125 -112.5t-168 -53.5l357 -563h-256l-416 684h53q102 0 178.5 12.5t124.5 53.5q105 92 105 247q0 77 -35 147t-94 109q-80 50 -258 50h-207v-1303h-242z" />
    <glyph glyph-name="S" unicode="S" horiz-adv-x="1122" 
d="M70 449h239q5 -65 25.5 -115.5t48 -79t62.5 -47.5t64 -25t56 -6q102 0 177 71t75 171q0 38 -9 68.5t-30 55t-42 42t-61 36t-69.5 30t-82.5 30.5q-29 10 -44 16q-36 12 -59.5 20.5t-67.5 28.5t-74.5 40t-67.5 53.5t-59.5 70.5t-38.5 88.5t-16 110.5q-1 102 40 186.5
t109 138t152.5 82.5t175.5 29q61 0 120.5 -13t119 -44.5t105 -78.5t76.5 -119.5t36 -162.5h-237q-6 30 -13 54t-24 55.5t-40 52.5t-62 36t-89 15q-95 0 -162 -59.5t-67 -153.5q0 -42 13.5 -74.5t37.5 -56.5t68 -46.5t92.5 -42t124.5 -47.5l10.5 -3.5t9.5 -3.5
q66 -28 111.5 -51t97.5 -61t83 -78.5t52 -100.5t21 -131q0 -93 -31.5 -175.5t-91.5 -146t-154.5 -100.5t-212.5 -37q-226 0 -360 129t-137 349z" />
    <glyph glyph-name="T" unicode="T" horiz-adv-x="970" 
d="M365 0v1303h-349v213h938v-213h-348v-1303h-241z" />
    <glyph glyph-name="U" unicode="U" horiz-adv-x="1343" 
d="M143 1516h242v-947q0 -61 2 -93.5t14.5 -81t38.5 -89.5q35 -55 96.5 -88t137.5 -33q77 0 137.5 31.5t91.5 85.5q27 40 40.5 88.5t15.5 83t2 96.5v947h239v-947q2 -163 -34 -274.5t-130 -190.5q-146 -133 -360 -133q-96 0 -196.5 31t-170.5 100q-103 92 -135.5 199.5
t-30.5 267.5v947z" />
    <glyph glyph-name="V" unicode="V" horiz-adv-x="1427" 
d="M592 0l-567 1516h249l439 -1221l440 1221h250l-572 -1516h-239z" />
    <glyph glyph-name="W" unicode="W" horiz-adv-x="1923" 
d="M438 0l-409 1516h245l299 -1186l297 1186h183l301 -1188l295 1188h245l-417 -1516h-224l-292 1149l-293 -1149h-230z" />
    <glyph glyph-name="X" unicode="X" horiz-adv-x="1368" 
d="M20 0l525 791l-484 725h275l348 -547l346 547h273l-478 -730l523 -786h-275l-397 616l-387 -616h-269z" />
    <glyph glyph-name="Y" unicode="Y" horiz-adv-x="1239" 
d="M500 0v539l-475 977h262l334 -750l333 750h263l-476 -977v-539h-241z" />
    <glyph glyph-name="Z" unicode="Z" horiz-adv-x="1021" 
d="M979 1327l-649 -1114h667v-213h-960v156l670 1147h-682v213h954v-189z" />
    <glyph glyph-name="bracketleft" unicode="[" horiz-adv-x="923" 
d="M778 -231v-181h-542v1928h542v-179h-336v-1568h336z" />
    <glyph glyph-name="backslash" unicode="\" horiz-adv-x="1144" 
d="M764 -205l-621 1721h238l623 -1721h-240z" />
    <glyph glyph-name="bracketright" unicode="]" horiz-adv-x="923" 
d="M145 -412v181h336v1568h-336v179h545v-1928h-545z" />
    <glyph glyph-name="asciicircum" unicode="^" horiz-adv-x="1228" 
d="M152 768l354 748h217l354 -748h-233l-232 557l-229 -557h-231z" />
    <glyph glyph-name="underscore" unicode="_" horiz-adv-x="1024" 
d="M1024 -256h-1024v102h1024v-102z" />
    <glyph glyph-name="grave" unicode="`" horiz-adv-x="1136" 
d="M328 1638l491 -272l-63 -131l-498 250z" />
    <glyph glyph-name="a" unicode="a" horiz-adv-x="1415" 
d="M1274 1114v-1114h-213v195q-57 -110 -168 -169t-246 -59q-130 0 -239.5 48.5t-181 130t-111 188t-39.5 223.5q0 167 75 302.5t205.5 211.5t290.5 76q153 0 261.5 -69t152.5 -160v196h213zM289 555v-2q1 -52 15 -104.5t45.5 -103.5t75.5 -90.5t109.5 -64t143.5 -24.5
q123 0 213 60.5t133 160.5q36 73 39 166q3 92 -33 166q-42 102 -135 165.5t-221 63.5q-170 0 -277.5 -115.5t-107.5 -277.5z" />
    <glyph glyph-name="b" unicode="b" horiz-adv-x="1400" 
d="M139 0v1516h213v-404v-176q73 103 184 156t226 55q109 0 210 -40t180.5 -113t127 -185.5t47.5 -247.5q0 -131 -45 -243t-122 -188.5t-182 -119.5t-224 -43q-139 0 -246.5 61.5t-163.5 164.5v-193h-205zM1114 557v2q0 163 -110.5 276t-274.5 113q-168 0 -276.5 -113.5
t-108.5 -275.5q0 -107 46.5 -196t134 -143t198.5 -54q92 0 167.5 33.5t123 89.5t73.5 125t27 143z" />
    <glyph glyph-name="c" unicode="c" horiz-adv-x="1304" 
d="M1018 391h219q-52 -186 -206 -305t-359 -119q-133 0 -246.5 48.5t-189 130.5t-118 188.5t-42.5 222.5q0 122 45 231t122.5 188t186.5 125t232 46q203 0 363 -117t212 -315h-219q-42 110 -136.5 171.5t-211.5 61.5q-156 3 -273 -108q-50 -50 -79 -124.5t-29 -158.5
q0 -170 109.5 -280.5t271.5 -110.5q130 1 220 66.5t128 158.5z" />
    <glyph glyph-name="d" unicode="d" horiz-adv-x="1411" 
d="M1268 1516v-1516h-205v195q-52 -99 -155 -163.5t-261 -64.5q-128 0 -236.5 47.5t-181 128t-113 188t-40.5 228.5q0 170 75.5 305t205 209t286.5 74q81 0 153 -21t122 -54t84.5 -68.5t52.5 -71.5v196v388h213zM289 559v-2q2 -162 108 -276.5t283 -114.5q164 0 278 117
q115 115 109 280q0 165 -113 275q-110 110 -274 110q-173 0 -282 -114t-109 -275z" />
    <glyph glyph-name="e" unicode="e" horiz-adv-x="1298" 
d="M1229 489h-953q4 -81 39 -147.5t89.5 -107t118 -62.5t128.5 -22q111 0 193 49.5t129 138.5h221q-78 -182 -225 -277q-140 -94 -318 -94q-132 0 -245 50.5t-187.5 133t-116 188t-41.5 216.5q0 158 75.5 293.5t211.5 217t301 81.5q119 0 225.5 -42.5t186.5 -121.5
q97 -98 139.5 -225.5t28.5 -268.5zM281 655h737q-4 56 -33 111.5t-76 100.5t-115.5 72t-144.5 26q-155 0 -257.5 -94t-110.5 -216z" />
    <glyph glyph-name="f" unicode="f" horiz-adv-x="595" 
d="M162 0v948h-152v166h152v76q0 70 15.5 125.5t39 91.5t61 62.5t71 40t80 22t77.5 10t74 2.5v-168q-25 -1 -35 -1.5t-36.5 -4.5t-40 -10.5t-34.5 -21t-31.5 -34.5t-19 -52t-8.5 -72v-66h205v-166h-205v-948h-213z" />
    <glyph glyph-name="g" unicode="g" horiz-adv-x="1402" 
d="M1266 1114v-985q0 -264 -131 -414q-79 -92 -203.5 -147t-265.5 -55q-114 0 -211 31.5t-164.5 84.5t-112 117.5t-65.5 136.5h245q38 -75 123 -129q89 -59 193 -59q71 0 138 26t121 73.5t87 122.5t33 165v115q-54 -101 -157 -165.5t-245 -64.5q-164 0 -296 77t-205.5 211
t-73.5 298q0 128 44.5 239t121.5 188.5t183 122t226 44.5q135 0 245 -63t157 -158v188h213zM289 559v-2q0 -162 106.5 -276.5t278.5 -114.5q164 0 274 113q106 109 109 272q0 152 -90 264q-102 131 -293 131q-161 0 -273 -109t-112 -278z" />
    <glyph glyph-name="h" unicode="h" horiz-adv-x="1302" 
d="M139 0v1516h213v-383v-175q47 94 147 142.5t216 46.5q241 0 356 -156q96 -132 96 -383v-608h-215v598q0 165 -63 250q-79 98 -234 98q-157 0 -235 -102q-68 -85 -68 -215v-629h-213z" />
    <glyph glyph-name="i" unicode="i" horiz-adv-x="491" 
d="M139 1290v226h213v-226h-213zM139 0v1114h213v-1114h-213z" />
    <glyph glyph-name="j" unicode="j" horiz-adv-x="563" 
d="M186 1288v228h213v-228h-213zM399 1114v-1096q0 -53 -2.5 -93t-11 -86.5t-23 -80.5t-40.5 -68t-62 -56.5t-88.5 -38t-118.5 -19.5q-18 -2 -59 -2v170q25 0 35 2q43 5 73 21.5t46 38.5t25 58.5t11 68t2 79.5v1102h213z" />
    <glyph glyph-name="k" unicode="k" horiz-adv-x="1095" 
d="M145 0v1516h215v-842l437 440h258l-496 -489l510 -625h-248l-461 573v-573h-215z" />
    <glyph glyph-name="l" unicode="l" horiz-adv-x="491" 
d="M139 0v1516h213v-1516h-213z" />
    <glyph glyph-name="m" unicode="m" horiz-adv-x="1966" 
d="M139 0v1114h201v-158q38 77 131 134t207 57q182 0 287 -119q10 -10 22 -27t19.5 -30t17.5 -30.5t12 -20.5q36 66 80 110q117 117 295 117q189 0 299 -113q72 -73 97.5 -164.5t25.5 -255.5v-614h-213v606q0 170 -61 248q-63 92 -199 92q-71 0 -127.5 -27.5t-87.5 -78.5
q-31 -49 -41 -98.5t-10 -127.5v-614h-215v614q3 143 -45 222q-67 107 -211 110q-71 1 -126 -29t-85 -79q-60 -86 -60 -228v-610h-213z" />
    <glyph glyph-name="n" unicode="n" horiz-adv-x="1302" 
d="M139 0v1114h201v-172q43 92 139 149t238 56q103 -1 183 -31t129.5 -77.5t81.5 -113.5t44 -132t12 -140v-653h-215v604q0 161 -70 252t-225 90q-152 -1 -228.5 -88t-76.5 -237v-621h-213z" />
    <glyph glyph-name="o" unicode="o" horiz-adv-x="1341" 
d="M76 557v2q0 112 41 217t115 188t188 133t250 50t250 -50t188 -133t115 -188.5t41 -218.5t-41 -218t-115 -188t-188 -132.5t-250 -49.5t-250 49.5t-188 132.5t-115 188t-41 218zM289 557v-2q0 -165 110 -276t271 -111t271 111.5t110 277.5t-110 277.5t-271 111.5
t-271 -111.5t-110 -277.5z" />
    <glyph glyph-name="p" unicode="p" horiz-adv-x="1409" 
d="M139 -406v1520h203v-194q66 105 174.5 166t251.5 61q111 0 205 -35.5t159 -94.5t110.5 -137t67 -161t21.5 -168q0 -157 -69.5 -290t-199 -213.5t-292.5 -80.5q-156 0 -264.5 67t-153.5 150v-184v-406h-213zM1116 557v2q0 70 -25 138t-71.5 124.5t-122.5 91.5t-170 35
q-165 0 -276 -114q-109 -112 -109 -279q0 -165 111 -276q113 -113 276 -113q167 0 277 113t110 278z" />
    <glyph glyph-name="q" unicode="q" horiz-adv-x="1406" 
d="M1268 1114v-1520h-213v406v188q-20 -38 -54 -74t-84 -70.5t-123.5 -55.5t-158.5 -21q-163 0 -292 79.5t-198 211t-69 287.5q0 172 73 309.5t203.5 215t294.5 77.5q154 0 259 -65.5t157 -157.5v190h205zM289 553v-2q0 -101 48 -188.5t138 -142t203 -54.5q161 0 274 113
t113 276q6 161 -109 279q-114 114 -278 114q-92 0 -167.5 -34.5t-122.5 -91t-72.5 -126t-26.5 -143.5z" />
    <glyph glyph-name="r" unicode="r" horiz-adv-x="688" 
d="M139 0v1114h201v-164q93 194 332 197v-213h-15q-305 0 -305 -332v-602h-213z" />
    <glyph glyph-name="s" unicode="s" horiz-adv-x="954" 
d="M842 823h-211q0 68 -41.5 109.5t-120.5 40.5q-75 0 -118.5 -42.5t-41.5 -101.5q3 -62 53.5 -98t149.5 -63q51 -14 74.5 -21t69.5 -24t69.5 -31.5t56 -41t49 -55.5t29.5 -71t14 -92q3 -160 -112.5 -262.5t-284.5 -102.5q-69 0 -136.5 20.5t-127.5 61t-98.5 111.5
t-42.5 162h211q4 -63 37 -106t74 -59t85 -16q77 0 130 48t53 118q-1 78 -61 118.5t-224 94.5q-63 19 -110 42t-87.5 56.5t-61.5 81.5t-22 109q0 153 108.5 245.5t266.5 92.5q49 0 96.5 -9.5t96 -33.5t85.5 -59.5t62.5 -93t30.5 -128.5z" />
    <glyph glyph-name="t" unicode="t" horiz-adv-x="667" 
d="M219 0v948h-201v166h201v402h213v-402h215v-166h-215v-948h-213z" />
    <glyph glyph-name="u" unicode="u" horiz-adv-x="1304" 
d="M1165 1114v-1114h-200v172q-43 -92 -139 -149t-238 -56q-103 1 -183.5 30.5t-130 77t-81.5 113.5t-44 132.5t-12 140.5v653h213v-604q0 -344 297 -344q152 1 228.5 89.5t76.5 236.5v622h213z" />
    <glyph glyph-name="v" unicode="v" horiz-adv-x="1110" 
d="M1087 1114l-425 -1114h-213l-426 1114h223l309 -848l309 848h223z" />
    <glyph glyph-name="w" unicode="w" horiz-adv-x="1656" 
d="M389 0l-373 1114h224l262 -842l237 777h179l241 -777l258 842h221l-370 -1114h-203l-240 780l-233 -780h-203z" />
    <glyph glyph-name="x" unicode="x" horiz-adv-x="1085" 
d="M10 0l402 580l-375 534h258l248 -383l245 383h254l-372 -534l403 -580h-260l-270 414l-273 -414h-260z" />
    <glyph glyph-name="y" unicode="y" horiz-adv-x="1089" 
d="M252 -406l184 439l-426 1081h230l307 -815l311 815h229l-608 -1520h-227z" />
    <glyph glyph-name="z" unicode="z" horiz-adv-x="874" 
d="M29 0v152l565 796h-549v166h784v-168l-546 -780h563v-166h-817z" />
    <glyph glyph-name="braceleft" unicode="{" horiz-adv-x="1015" 
d="M862 1528v-166h-112q-76 0 -99.5 -41.5t-23.5 -138.5v-406q0 -48 -16 -92.5t-37.5 -75.5t-51.5 -59.5t-50.5 -43t-41.5 -26.5q76 -20 136.5 -91t60.5 -181v-408q0 -100 23 -140t100 -40h112v-168h-207q-113 0 -180 69t-67 204v407q0 175 -185 240v221q66 9 125.5 75
t59.5 177v416q0 134 66.5 201t180.5 67h207z" />
    <glyph glyph-name="bar" unicode="|" horiz-adv-x="1136" 
d="M453 1536h233v-2048h-233v2048z" />
    <glyph glyph-name="braceright" unicode="}" horiz-adv-x="1015" 
d="M154 1362v166h206q114 0 181 -67t67 -201v-416q0 -111 59.5 -177t125.5 -75v-221q-185 -65 -185 -240v-407q0 -135 -67.5 -204t-180.5 -69h-206v168h112q77 0 100 40t23 140v408q0 45 16.5 87.5t39 72t52 55.5t50.5 39t39 22q-81 29 -139 103t-58 190v406q0 98 -22.5 139
t-100.5 41h-112z" />
    <glyph glyph-name="asciitilde" unicode="~" horiz-adv-x="1228" 
d="M1024 692l59 -196q-51 -76 -107 -120t-128 -44q-85 0 -219 69q-144 74 -234 74q-112 3 -192 -135l-58 192q92 173 256 168q80 0 234 -69q9 -4 37.5 -17t40 -18t35 -14.5t37.5 -13.5t31.5 -7.5t31.5 -3.5q37 0 72 22t55 46.5t49 66.5z" />
    <glyph glyph-name="uni00A0" unicode="&#xa0;" horiz-adv-x="604" 
 />
    <glyph glyph-name="exclamdown" unicode="&#xa1;" horiz-adv-x="614" 
d="M197 848v266h221v-266h-221zM197 -401v1087h221v-1087h-221z" />
    <glyph glyph-name="cent" unicode="&#xa2;" 
d="M709 72h-183v217q-85 18 -154 57.5t-112.5 88t-73 106.5t-41.5 112t-12 107q0 57 13 114.5t43.5 116t74.5 107t112 86.5t150 55v205h176v-203q139 -32 237.5 -122t135.5 -214h-225q-39 71 -101.5 101t-127.5 30q-118 0 -196.5 -79t-78.5 -191q0 -113 75.5 -195t199.5 -82
q147 0 225 121h231q-48 -128 -149 -213t-219 -108v-217z" />
    <glyph glyph-name="sterling" unicode="&#xa3;" 
d="M838 831v-174h-312q133 -118 133 -256q0 -96 -86 -208h132q73 0 116.5 11.5t79.5 39.5q84 78 84 182q0 30 -14 88h211q16 -62 16 -119q0 -72 -29.5 -143t-76.5 -123q-66 -66 -146.5 -97.5t-214.5 -31.5h-649v193h192q60 13 104 58.5t44 133.5q0 79 -40.5 142.5
t-113.5 129.5h-248v174h134q-68 97 -68 220q0 95 37 183.5t102.5 157.5t164.5 110.5t214 41.5q197 0 340.5 -120t169.5 -326h-225q-25 98 -95.5 165.5t-185.5 67.5q-123 0 -201 -82t-81 -205q3 -117 86 -213h426z" />
    <glyph glyph-name="currency" unicode="&#xa4;" 
d="M1059 139l-162 164q-135 -96 -293 -96q-156 0 -293 96l-164 -162l-110 109l168 168q-96 129 -96 280q0 160 98 289l-172 168l112 113l170 -170q129 94 287 94t283 -92l170 166l110 -111l-166 -166q97 -135 97 -291q0 -153 -94 -280l165 -166zM311 700v-2q0 -118 87 -204
t206 -86t205 85.5t86 206.5t-85.5 207t-205.5 86q-119 0 -206 -86t-87 -207z" />
    <glyph glyph-name="yen" unicode="&#xa5;" 
d="M1143 967v-181h-381l-41 -79v-109h422v-180h-422v-418h-238v418h-417v180h417v107l-43 81h-372v181h280l-317 549h256l317 -590l324 590h252l-320 -549h283z" />
    <glyph glyph-name="brokenbar" unicode="&#xa6;" horiz-adv-x="1136" 
d="M453 1382h233v-716h-233v716zM453 358h233v-716h-233v716z" />
    <glyph glyph-name="section" unicode="&#xa7;" horiz-adv-x="1284" 
d="M1098 1157h-211q-29 191 -240 191q-90 0 -153.5 -47.5t-63.5 -137.5q1 -39 15 -69t42 -52t48 -33.5t55 -27.5l342 -158q24 -11 39.5 -19t44.5 -25.5t49 -34t44.5 -43.5t39 -56t25 -68t10.5 -83q0 -182 -185 -322q121 -112 121 -274q0 -81 -31 -154t-88 -130t-147 -90.5
t-199 -33.5q-67 0 -133 13.5t-135 48.5t-121 86.5t-86.5 135t-36.5 187.5h211q4 -74 29 -128.5t67 -85.5t91.5 -45.5t109.5 -14.5q123 0 190 59.5t70 149.5q-3 67 -51 114.5t-145 91.5l-371 172q-27 13 -39.5 19t-43 24t-48 34t-42 44t-38 58t-23.5 73t-10 92q0 32 7.5 66.5
t27 79t62.5 91t104 85.5q-78 102 -78 225q0 75 24 137.5t65.5 106.5t97 75t118 45.5t129.5 14.5q198 0 317 -110t124 -277zM991 461v2q-1 37 -15 67t-41 53t-53 38t-65 32l-391 183q-65 -32 -97 -83t-32 -106q0 -118 131 -182l434 -199q50 24 89 77.5t40 117.5z" />
    <glyph glyph-name="dieresis" unicode="&#xa8;" horiz-adv-x="1136" 
d="M463 1563v-277h-207v277h207zM879 1563v-277h-207v277h207z" />
    <glyph glyph-name="copyright" unicode="&#xa9;" horiz-adv-x="1638" 
d="M823 1542h2q160 0 304.5 -62.5t248 -168.5t164 -250.5t60.5 -302.5q0 -161 -62 -307t-167 -250.5t-249 -166t-303 -61.5q-161 0 -306 61.5t-250 166t-166.5 250t-61.5 307.5q0 211 101.5 390.5t283 286.5t401.5 107zM821 1432h-2q-186 0 -339 -91.5t-238.5 -246
t-85.5 -336.5q0 -139 52 -264t141 -215t212 -142.5t260 -52.5q135 0 257 52.5t211 142t141.5 215t52.5 264.5q0 136 -50.5 260t-137.5 215t-211 145t-263 54zM1223 907h-144q-13 54 -40 93.5t-62.5 59.5t-71.5 29t-74 9q-137 0 -214.5 -96.5t-77.5 -241.5q0 -156 83 -245
t209 -89q19 0 40 2.5t58.5 16.5t67 38.5t56.5 74t37 116.5h145q-13 -173 -127.5 -274t-282.5 -101q-188 0 -311 124t-123 337q0 200 119.5 332.5t320.5 132.5q163 0 272 -94t120 -224z" />
    <glyph glyph-name="ordfeminine" unicode="&#xaa;" horiz-adv-x="837" 
d="M741 1524v-629h-137v111q-64 -129 -225 -129q-140 0 -232 97.5t-92 235.5q0 146 95.5 240t230.5 94q153 0 223 -131v111h137zM193 1206v-2q0 -71 55 -133.5t151 -62.5q64 0 112 30.5t73 79.5q20 41 20 92q0 47 -16 86q-24 53 -74.5 85t-116.5 32q-87 0 -145.5 -59
t-58.5 -148z" />
    <glyph glyph-name="guillemotleft" unicode="&#xab;" horiz-adv-x="798" 
d="M70 573l215 385h164l-216 -385l216 -380h-164zM377 573l215 385h164l-215 -385l215 -380h-164z" />
    <glyph glyph-name="logicalnot" unicode="&#xac;" horiz-adv-x="1228" 
d="M98 834h1032v-584h-206v379h-826v205z" />
    <glyph glyph-name="uni00AD" unicode="&#xad;" horiz-adv-x="561" 
d="M0 686h561v-211h-561v211z" />
    <glyph glyph-name="registered" unicode="&#xae;" horiz-adv-x="1638" 
d="M823 1542h2q160 0 304.5 -62.5t248 -168.5t164 -250.5t60.5 -302.5q0 -161 -62 -307t-167 -250.5t-249 -166t-303 -61.5q-161 0 -306 61.5t-250 166t-166.5 250t-61.5 307.5q0 126 38 244t109 215.5t167 170.5t217.5 113.5t254.5 40.5zM821 1432h-2q-185 0 -338 -91.5
t-239 -246t-86 -336.5q0 -138 52 -263t141 -215t212 -143t260 -53q135 0 257 52.5t211 142t141.5 215t52.5 264.5q0 135 -50.5 259t-137.5 215t-211 145.5t-263 54.5zM483 1204h373q40 0 78.5 -5.5t83.5 -22t78 -42.5t55.5 -71.5t22.5 -104.5q0 -152 -158 -215
q70 -23 102.5 -70t38.5 -134q8 -129 11.5 -161.5t15.5 -62.5h-142q-14 23 -26 207q-3 32 -6.5 50.5t-16.5 43t-33.5 37.5t-59.5 23t-93 10h-178v-371h-146v889zM834 1098h-205v-310h186q92 3 136 25q76 40 77 137q0 148 -194 148z" />
    <glyph glyph-name="macron" unicode="&#xaf;" horiz-adv-x="1136" 
d="M934 1505v-170h-733v170h733z" />
    <glyph glyph-name="degree" unicode="&#xb0;" horiz-adv-x="819" 
d="M702 1163v-2q0 -122 -84.5 -206.5t-207.5 -84.5t-208 85t-85 208t85 208t208 85t207.5 -85t84.5 -208zM238 1163v-2q0 -71 50.5 -122.5t121.5 -51.5q72 0 122 52t50 124q0 71 -50.5 122.5t-121.5 51.5t-121.5 -51.5t-50.5 -122.5z" />
    <glyph glyph-name="plusminus" unicode="&#xb1;" horiz-adv-x="1228" 
d="M512 758v336h205v-336h413v-207h-413v-328h-205v328h-414v207h414zM98 -92v207h1032v-207h-1032z" />
    <glyph glyph-name="twosuperior" unicode="&#xb2;" horiz-adv-x="782" 
d="M707 750v-144h-635v131q174 160 323 303q66 62 94.5 107.5t28.5 95.5q0 64 -33 105t-102 41q-71 0 -108 -54t-37 -135h-164q0 130 59 209q89 125 258 125q148 0 229.5 -72t81.5 -202q0 -77 -31 -137.5t-100 -127.5q-130 -124 -254 -245h390z" />
    <glyph glyph-name="threesuperior" unicode="&#xb3;" horiz-adv-x="782" 
d="M55 885h172q4 -72 48 -112t110 -40q72 0 114 42.5t42 109.5q0 54 -41.5 99.5t-122.5 45.5h-88v125h53q67 0 109.5 37t42.5 84q0 45 -28.5 78.5t-80.5 34.5q-57 0 -85.5 -33t-31.5 -82h-168q2 59 23 106t52 75t71 46.5t75 25.5t68 7q117 0 193.5 -69t76.5 -167
q0 -56 -30.5 -107t-85.5 -81q77 -30 124.5 -93t47.5 -140q0 -122 -96.5 -205.5t-235.5 -83.5q-81 0 -156 32.5t-116 90.5q-52 70 -56 174z" />
    <glyph glyph-name="acute" unicode="&#xb4;" horiz-adv-x="1136" 
d="M317 1374l490 275l72 -156l-496 -250z" />
    <glyph glyph-name="mu" unicode="&#xb5;" horiz-adv-x="1230" 
d="M131 -381v1495h213v-586q0 -177 57 -260q74 -102 211 -102q138 0 209 110q72 106 72 297v541h213v-1114h-205v186q-90 -209 -287 -209q-184 0 -270 144v-139v-363h-213z" />
    <glyph glyph-name="paragraph" unicode="&#xb6;" horiz-adv-x="1306" 
d="M451 -231v948q-129 0 -228 41.5t-159 131.5t-60 220q0 98 33.5 173t84.5 118t121 70t132.5 36t130.5 9h631v-160h-113v-1587h-172v1585h-229v-1585h-172z" />
    <glyph glyph-name="periodcentered" unicode="&#xb7;" horiz-adv-x="608" 
d="M418 653v-266h-223v266h223z" />
    <glyph glyph-name="cedilla" unicode="&#xb8;" horiz-adv-x="1136" 
d="M618 0l-55 -113q14 7 35 7q67 0 114.5 -46.5t47.5 -121.5q0 -74 -50.5 -130.5t-142.5 -56.5q-14 0 -30 2t-43.5 11t-49 25t-41.5 48.5t-26 75.5h110q8 -32 30.5 -47.5t49.5 -15.5q35 0 58.5 24t23.5 64q0 36 -23.5 57.5t-56.5 21.5q-43 0 -67 -38l-94 43l90 190h120z" />
    <glyph glyph-name="onesuperior" unicode="&#xb9;" horiz-adv-x="782" 
d="M485 1516v-910h-163v766h-177v144h340z" />
    <glyph glyph-name="ordmasculine" unicode="&#xba;" horiz-adv-x="837" 
d="M82 1206v2q0 87 39 162.5t117 124t180 49.5q153 0 245.5 -100.5t92.5 -233.5q0 -137 -96 -235t-242 -98q-99 0 -177 48t-118.5 122.5t-40.5 158.5zM219 1208v-2q0 -82 58.5 -140t140.5 -58q80 0 139 57.5t59 144.5q0 85 -56.5 144t-139.5 59q-82 0 -141.5 -57.5
t-59.5 -147.5z" />
    <glyph glyph-name="guillemotright" unicode="&#xbb;" horiz-adv-x="798" 
d="M514 956l215 -383l-215 -380h-164l217 380l-217 383h164zM207 956l215 -383l-215 -380h-164l215 380l-215 383h164z" />
    <glyph glyph-name="onequarter" unicode="&#xbc;" horiz-adv-x="1658" 
d="M1178 1516l-654 -1516h-180l651 1516h183zM1305 698l-267 -403h267v403zM434 1516v-910h-164v766h-176v144h340zM1468 909v-614h97v-129h-97v-166h-165v166h-445v115l447 628h163z" />
    <glyph glyph-name="onehalf" unicode="&#xbd;" horiz-adv-x="1728" 
d="M434 1516v-910h-164v766h-176v144h340zM1178 1516l-654 -1516h-180l651 1516h183zM1634 143v-143h-635v131q196 180 324 303q66 62 94.5 107.5t28.5 95.5q0 64 -33 104.5t-102 40.5q-71 0 -108.5 -54t-37.5 -134h-164q0 124 54 201q90 133 264 133q148 0 229.5 -72
t81.5 -203q0 -77 -31 -137t-100 -127q-86 -82 -254 -246h389z" />
    <glyph glyph-name="threequarters" unicode="&#xbe;" horiz-adv-x="1869" 
d="M1526 705l-273 -410h273v410zM1405 1516l-653 -1516h-181l652 1516h182zM1690 909v-614h96v-129h-96v-166h-166v166h-445v115l447 628h164zM84 885h170q4 -72 48.5 -112t111.5 -40q72 0 113.5 42.5t41.5 109.5q0 55 -41.5 100t-124.5 45h-86v125h52q68 0 109.5 36.5
t41.5 84.5q0 45 -27.5 78.5t-78.5 34.5q-58 0 -86.5 -33.5t-30.5 -81.5h-168q1 59 22 106t52.5 75t71 46.5t75 25.5t68.5 7q115 0 191.5 -69t76.5 -167q0 -57 -30.5 -107.5t-86.5 -80.5q78 -29 125 -92t47 -141q0 -123 -95.5 -206t-233.5 -83q-83 0 -158.5 33t-118.5 94
q-47 66 -51 170z" />
    <glyph glyph-name="questiondown" unicode="&#xbf;" horiz-adv-x="1161" 
d="M504 848v266h223v-266h-223zM502 694h225q-3 -109 -46.5 -198t-154.5 -195q-93 -93 -132 -149t-40 -127q0 -100 63.5 -167t168.5 -67q97 0 163.5 59t81.5 162q5 40 5 51h233v-45q-7 -106 -51 -192.5t-113 -141.5t-154 -84.5t-176 -29.5q-135 0 -242.5 61.5t-164.5 159.5
t-57 211q0 51 15 100.5t34 85.5t55.5 78.5t61.5 67t69 65.5q96 92 125 157.5t31 137.5z" />
    <glyph glyph-name="Agrave" unicode="&#xc0;" horiz-adv-x="1486" 
d="M418 358l-139 -358h-263l623 1516h219l612 -1516h-262l-143 358h-647zM999 553l-260 682l-256 -682h516zM500 1976l491 -272l-65 -131l-498 250z" />
    <glyph glyph-name="Aacute" unicode="&#xc1;" horiz-adv-x="1486" 
d="M418 358l-139 -358h-263l623 1516h219l612 -1516h-262l-143 358h-647zM999 553l-260 682l-256 -682h516zM498 1714l489 273l72 -156l-496 -250z" />
    <glyph glyph-name="Acircumflex" unicode="&#xc2;" horiz-adv-x="1486" 
d="M418 358l-139 -358h-263l623 1516h219l612 -1516h-262l-143 358h-647zM999 553l-260 682l-256 -682h516zM821 1915l346 -295h-221l-203 152l-200 -152h-224l353 295h149z" />
    <glyph glyph-name="Atilde" unicode="&#xc3;" horiz-adv-x="1486" 
d="M418 358l-139 -358h-263l623 1516h219l612 -1516h-262l-143 358h-647zM999 553l-260 682l-256 -682h516zM1061 1884l80 -141q-95 -80 -215 -80q-37 0 -181 33q-98 30 -161 30q-88 0 -156 -55l-80 146q39 33 96.5 54t114.5 21q62 0 180 -30q91 -31 164 -31q99 0 158 53z
" />
    <glyph glyph-name="Adieresis" unicode="&#xc4;" horiz-adv-x="1486" 
d="M418 358l-139 -358h-263l623 1516h219l612 -1516h-262l-143 358h-647zM999 553l-260 682l-256 -682h516zM639 1901v-277h-207v277h207zM1055 1901v-277h-207v277h207z" />
    <glyph glyph-name="Aring" unicode="&#xc5;" horiz-adv-x="1486" 
d="M418 358l-139 -358h-263l623 1516h219l612 -1516h-262l-143 358h-647zM999 553l-260 682l-256 -682h516zM743 2013h2q93 0 159.5 -66t66.5 -159q0 -92 -67 -158.5t-161 -66.5q-93 0 -159 66t-66 159q0 94 65.5 159.5t159.5 65.5zM743 1898h-2q-44 0 -75 -32.5t-31 -75.5
q0 -44 32 -75.5t76 -31.5t76.5 31.5t32.5 75.5t-32 76t-77 32z" />
    <glyph glyph-name="AE" unicode="&#xc6;" horiz-adv-x="1968" 
d="M-18 0l1050 1516h811v-213h-547v-431h539v-210h-539v-449h547v-213h-782v383h-531l-260 -383h-288zM637 571h424v625z" />
    <glyph glyph-name="Ccedilla" unicode="&#xc7;" horiz-adv-x="1660" 
d="M887 -27l-43 -86q18 7 37 7q65 0 114 -46.5t49 -121.5q0 -74 -51 -130.5t-143 -56.5q-14 0 -30 2t-43.5 11t-49.5 25t-42 48.5t-26 75.5h111q20 -63 80 -63q36 0 59.5 23.5t24.5 64.5q-1 36 -25 57.5t-57 21.5q-44 0 -68 -38l-94 43l82 170q-149 17 -278 85.5t-219.5 172
t-142.5 239t-52 283.5q0 124 36.5 241t107 215t165.5 171.5t219 115t262 41.5q117 -1 224 -33t186 -82.5t143.5 -117t105.5 -132.5t64 -132h-256q-16 33 -41.5 67.5t-68.5 74t-93 70t-120 51t-146 21.5q-157 0 -283 -78.5t-194.5 -209t-68.5 -283.5q0 -117 41 -222.5
t113 -183.5t174.5 -124t219.5 -46q83 0 158 24.5t123 56t91.5 76t61 69.5t33.5 51h254q-71 -207 -262.5 -344.5t-441.5 -143.5z" />
    <glyph glyph-name="Egrave" unicode="&#xc8;" horiz-adv-x="1099" 
d="M145 0v1516h848v-213h-606v-431h598v-210h-598v-449h606v-213h-848zM309 2003l492 -270l-64 -131l-497 247z" />
    <glyph glyph-name="Eacute" unicode="&#xc9;" horiz-adv-x="1099" 
d="M145 0v1516h848v-213h-606v-431h598v-210h-598v-449h606v-213h-848zM299 1741l489 272l72 -153l-495 -250z" />
    <glyph glyph-name="Ecircumflex" unicode="&#xca;" horiz-adv-x="1099" 
d="M145 0v1516h848v-213h-606v-431h598v-210h-598v-449h606v-213h-848zM627 1942l348 -295h-223l-201 151l-203 -151h-223l354 295h148z" />
    <glyph glyph-name="Edieresis" unicode="&#xcb;" horiz-adv-x="1099" 
d="M145 0v1516h848v-213h-606v-431h598v-210h-598v-449h606v-213h-848zM444 1929v-278h-206v278h206zM860 1929v-278h-207v278h207z" />
    <glyph glyph-name="Igrave" unicode="&#xcc;" horiz-adv-x="534" 
d="M145 0v1516h242v-1516h-242zM-18 1999l489 -273l-63 -131l-498 250z" />
    <glyph glyph-name="Iacute" unicode="&#xcd;" horiz-adv-x="534" 
d="M145 0v1516h242v-1516h-242zM63 1737l490 272l72 -156l-496 -249z" />
    <glyph glyph-name="Icircumflex" unicode="&#xce;" horiz-adv-x="534" 
d="M145 0v1516h242v-1516h-242zM344 1933l348 -295h-223l-201 152l-202 -152h-224l355 295h147z" />
    <glyph glyph-name="Idieresis" unicode="&#xcf;" horiz-adv-x="534" 
d="M145 0v1516h242v-1516h-242zM162 1923v-276h-207v276h207zM578 1923v-276h-207v276h207z" />
    <glyph glyph-name="Eth" unicode="&#xd0;" horiz-adv-x="1482" 
d="M145 877v639h476q87 0 159.5 -9t157 -33t161.5 -75.5t138 -128.5q166 -198 166 -510q0 -167 -48.5 -305.5t-141.5 -240t-236 -158t-324 -56.5h-508v664h-145v213h145zM387 1303v-426h352v-213h-352v-451h256q257 0 388.5 148t131.5 395q0 238 -123 387q-139 160 -395 160
h-258z" />
    <glyph glyph-name="Ntilde" unicode="&#xd1;" horiz-adv-x="1536" 
d="M373 1516l786 -1154l-4 1154h234v-1516h-222l-792 1155l4 -1155h-234v1516h228zM1083 1880l82 -143q-96 -78 -215 -78q-58 0 -180 33q-98 30 -162 30q-88 0 -155 -57l-82 147q41 33 98.5 54.5t114.5 21.5q69 0 178 -33q96 -28 166 -28q99 0 155 53z" />
    <glyph glyph-name="Ograve" unicode="&#xd2;" horiz-adv-x="1742" 
d="M78 748v2q0 140 41 265.5t115 220.5t173 165t217.5 106.5t245.5 36.5q167 0 315 -62t253 -167t166 -250.5t61 -306.5t-61 -306.5t-166 -251t-254 -167.5t-316 -62t-315.5 63t-251.5 168.5t-163 248t-60 297.5zM317 760v-2q0 -156 71 -287.5t199.5 -209t286.5 -77.5
q120 0 224.5 48t174.5 127.5t110 183t40 213.5q0 111 -40 215t-110.5 184t-175 128t-225.5 48t-225.5 -46.5t-176 -124.5t-112.5 -182t-41 -218zM631 2003l491 -270l-63 -131l-498 247z" />
    <glyph glyph-name="Oacute" unicode="&#xd3;" horiz-adv-x="1742" 
d="M78 748v2q0 140 41 265.5t115 220.5t173 165t217.5 106.5t245.5 36.5q167 0 315 -62t253 -167t166 -250.5t61 -306.5t-61 -306.5t-166 -251t-254 -167.5t-316 -62t-315.5 63t-251.5 168.5t-163 248t-60 297.5zM317 760v-2q0 -156 71 -287.5t199.5 -209t286.5 -77.5
q120 0 224.5 48t174.5 127.5t110 183t40 213.5q0 111 -40 215t-110.5 184t-175 128t-225.5 48t-225.5 -46.5t-176 -124.5t-112.5 -182t-41 -218zM621 1741l489 272l72 -153l-496 -250z" />
    <glyph glyph-name="Ocircumflex" unicode="&#xd4;" horiz-adv-x="1742" 
d="M78 748v2q0 140 41 265.5t115 220.5t173 165t217.5 106.5t245.5 36.5q167 0 315 -62t253 -167t166 -250.5t61 -306.5t-61 -306.5t-166 -251t-254 -167.5t-316 -62t-315.5 63t-251.5 168.5t-163 248t-60 297.5zM317 760v-2q0 -156 71 -287.5t199.5 -209t286.5 -77.5
q120 0 224.5 48t174.5 127.5t110 183t40 213.5q0 111 -40 215t-110.5 184t-175 128t-225.5 48t-225.5 -46.5t-176 -124.5t-112.5 -182t-41 -218zM948 1937l348 -295h-223l-201 152l-202 -152h-224l355 295h147z" />
    <glyph glyph-name="Otilde" unicode="&#xd5;" horiz-adv-x="1742" 
d="M78 748v2q0 140 41 265.5t115 220.5t173 165t217.5 106.5t245.5 36.5q167 0 315 -62t253 -167t166 -250.5t61 -306.5t-61 -306.5t-166 -251t-254 -167.5t-316 -62t-315.5 63t-251.5 168.5t-163 248t-60 297.5zM317 760v-2q0 -156 71 -287.5t199.5 -209t286.5 -77.5
q120 0 224.5 48t174.5 127.5t110 183t40 213.5q0 111 -40 215t-110.5 184t-175 128t-225.5 48t-225.5 -46.5t-176 -124.5t-112.5 -182t-41 -218zM1188 1880l80 -143q-93 -78 -215 -78q-55 0 -181 33q-98 30 -161 30q-86 0 -156 -57l-80 147q41 33 98 54.5t113 21.5
q67 0 180 -33q96 -28 164 -28q99 0 158 53z" />
    <glyph glyph-name="Odieresis" unicode="&#xd6;" horiz-adv-x="1742" 
d="M78 748v2q0 140 41 265.5t115 220.5t173 165t217.5 106.5t245.5 36.5q167 0 315 -62t253 -167t166 -250.5t61 -306.5t-61 -306.5t-166 -251t-254 -167.5t-316 -62t-315.5 63t-251.5 168.5t-163 248t-60 297.5zM317 760v-2q0 -156 71 -287.5t199.5 -209t286.5 -77.5
q120 0 224.5 48t174.5 127.5t110 183t40 213.5q0 111 -40 215t-110.5 184t-175 128t-225.5 48t-225.5 -46.5t-176 -124.5t-112.5 -182t-41 -218zM766 1929v-278h-207v278h207zM1182 1929v-278h-207v278h207z" />
    <glyph glyph-name="multiply" unicode="&#xd7;" horiz-adv-x="1228" 
d="M256 0l-147 147l358 359l-358 354l147 148l356 -357l361 357l147 -148l-358 -354l356 -359l-147 -147l-357 358z" />
    <glyph glyph-name="Oslash" unicode="&#xd8;" horiz-adv-x="1742" 
d="M1262 1444l102 139h240l-187 -252q103 -94 175.5 -240.5t72.5 -332.5q0 -161 -61 -306.5t-166 -251t-254 -167.5t-316 -62q-211 0 -381 97l-102 -136h-240l185 248q-108 93 -180 240.5t-72 337.5q0 221 105 401.5t287 282.5t402 102q211 0 390 -100zM473 371l653 893
q-103 67 -254 67q-162 0 -290.5 -80.5t-196.5 -210t-68 -278.5q0 -115 42.5 -218t113.5 -173zM1274 1143l-653 -893q107 -66 251 -66q122 0 227 48.5t175 128.5t109.5 183t39.5 212q0 222 -149 387z" />
    <glyph glyph-name="Ugrave" unicode="&#xd9;" horiz-adv-x="1343" 
d="M143 1516h242v-947q0 -61 2 -93.5t14.5 -81t38.5 -89.5q35 -55 96.5 -88t137.5 -33q77 0 137.5 31.5t91.5 85.5q27 40 40.5 88.5t15.5 83t2 96.5v947h239v-947q2 -163 -34 -274.5t-130 -190.5q-146 -133 -360 -133q-96 0 -196.5 31t-170.5 100q-103 92 -135.5 199.5
t-30.5 267.5v947zM365 1989l491 -271l-63 -131l-498 248z" />
    <glyph glyph-name="Uacute" unicode="&#xda;" horiz-adv-x="1343" 
d="M143 1516h242v-947q0 -61 2 -93.5t14.5 -81t38.5 -89.5q35 -55 96.5 -88t137.5 -33q77 0 137.5 31.5t91.5 85.5q27 40 40.5 88.5t15.5 83t2 96.5v947h239v-947q2 -163 -34 -274.5t-130 -190.5q-146 -133 -360 -133q-96 0 -196.5 31t-170.5 100q-103 92 -135.5 199.5
t-30.5 267.5v947zM461 1726l489 273l72 -154l-496 -250z" />
    <glyph glyph-name="Ucircumflex" unicode="&#xdb;" horiz-adv-x="1343" 
d="M143 1516h242v-947q0 -61 2 -93.5t14.5 -81t38.5 -89.5q35 -55 96.5 -88t137.5 -33q77 0 137.5 31.5t91.5 85.5q27 40 40.5 88.5t15.5 83t2 96.5v947h239v-947q2 -163 -34 -274.5t-130 -190.5q-146 -133 -360 -133q-96 0 -196.5 31t-170.5 100q-103 92 -135.5 199.5
t-30.5 267.5v947zM750 1927l348 -295h-224l-202 152l-201 -152h-223l354 295h148z" />
    <glyph glyph-name="Udieresis" unicode="&#xdc;" horiz-adv-x="1343" 
d="M143 1516h242v-947q0 -61 2 -93.5t14.5 -81t38.5 -89.5q35 -55 96.5 -88t137.5 -33q77 0 137.5 31.5t91.5 85.5q27 40 40.5 88.5t15.5 83t2 96.5v947h239v-947q2 -163 -34 -274.5t-130 -190.5q-146 -133 -360 -133q-96 0 -196.5 31t-170.5 100q-103 92 -135.5 199.5
t-30.5 267.5v947zM567 1915v-277h-207v277h207zM983 1915v-277h-207v277h207z" />
    <glyph glyph-name="Yacute" unicode="&#xdd;" horiz-adv-x="1239" 
d="M500 0v539l-475 977h262l334 -750l333 750h263l-476 -977v-539h-241zM436 1726l490 273l71 -154l-495 -250z" />
    <glyph glyph-name="Thorn" unicode="&#xde;" horiz-adv-x="1187" 
d="M137 0v1516h242v-252h190q174 0 264.5 -23t161.5 -78q79 -62 123.5 -163.5t44.5 -211.5q0 -109 -43.5 -212t-113.5 -158q-79 -63 -166.5 -88t-247.5 -25h-213v-305h-242zM379 1051v-535h209q80 0 134 11t101 40q48 29 78.5 87t30.5 130q0 73 -31 130.5t-80 86.5
q-48 29 -103 39.5t-138 10.5h-201z" />
    <glyph glyph-name="germandbls" unicode="&#xdf;" horiz-adv-x="1296" 
d="M135 0v918q0 183 22 277.5t87 170.5q70 88 174.5 135t212.5 47q198 0 321 -120t123 -295q0 -113 -51.5 -191t-130.5 -121q146 -27 237 -138.5t91 -254.5q0 -123 -61.5 -228t-174.5 -169t-254 -64q-144 2 -244.5 70.5t-138.5 195.5v-233h-213zM348 971v-559h129
q10 -116 82 -180t176 -66q119 0 196 74.5t77 181.5q0 121 -82 194q-40 35 -100.5 54t-170.5 20h-98v164h64q101 0 171 70t70 176q0 116 -70 183t-182 67q-74 0 -129 -33t-86 -88q-29 -53 -38 -112t-9 -146z" />
    <glyph glyph-name="agrave" unicode="&#xe0;" horiz-adv-x="1415" 
d="M1274 1114v-1114h-213v195q-57 -110 -168 -169t-246 -59q-130 0 -239.5 48.5t-181 130t-111 188t-39.5 223.5q0 167 75 302.5t205.5 211.5t290.5 76q153 0 261.5 -69t152.5 -160v196h213zM289 555v-2q1 -52 15 -104.5t45.5 -103.5t75.5 -90.5t109.5 -64t143.5 -24.5
q123 0 213 60.5t133 160.5q36 73 39 166q3 92 -33 166q-42 102 -135 165.5t-221 63.5q-170 0 -277.5 -115.5t-107.5 -277.5zM451 1638l491 -272l-63 -131l-498 250z" />
    <glyph glyph-name="aacute" unicode="&#xe1;" horiz-adv-x="1415" 
d="M1274 1114v-1114h-213v195q-57 -110 -168 -169t-246 -59q-130 0 -239.5 48.5t-181 130t-111 188t-39.5 223.5q0 167 75 302.5t205.5 211.5t290.5 76q153 0 261.5 -69t152.5 -160v196h213zM289 555v-2q1 -52 15 -104.5t45.5 -103.5t75.5 -90.5t109.5 -64t143.5 -24.5
q123 0 213 60.5t133 160.5q36 73 39 166q3 92 -33 166q-42 102 -135 165.5t-221 63.5q-170 0 -277.5 -115.5t-107.5 -277.5zM453 1374l489 275l72 -156l-496 -250z" />
    <glyph glyph-name="acircumflex" unicode="&#xe2;" horiz-adv-x="1415" 
d="M1274 1114v-1114h-213v195q-57 -110 -168 -169t-246 -59q-130 0 -239.5 48.5t-181 130t-111 188t-39.5 223.5q0 167 75 302.5t205.5 211.5t290.5 76q153 0 261.5 -69t152.5 -160v196h213zM289 555v-2q1 -52 15 -104.5t45.5 -103.5t75.5 -90.5t109.5 -64t143.5 -24.5
q123 0 213 60.5t133 160.5q36 73 39 166q3 92 -33 166q-42 102 -135 165.5t-221 63.5q-170 0 -277.5 -115.5t-107.5 -277.5zM768 1577l348 -295h-223l-201 152l-203 -152h-223l355 295h147z" />
    <glyph glyph-name="atilde" unicode="&#xe3;" horiz-adv-x="1415" 
d="M1274 1114v-1114h-213v195q-57 -110 -168 -169t-246 -59q-130 0 -239.5 48.5t-181 130t-111 188t-39.5 223.5q0 167 75 302.5t205.5 211.5t290.5 76q153 0 261.5 -69t152.5 -160v196h213zM289 555v-2q1 -52 15 -104.5t45.5 -103.5t75.5 -90.5t109.5 -64t143.5 -24.5
q123 0 213 60.5t133 160.5q36 73 39 166q3 92 -33 166q-42 102 -135 165.5t-221 63.5q-170 0 -277.5 -115.5t-107.5 -277.5zM1012 1520l82 -144q-96 -78 -215 -78q-59 0 -181 33q-114 31 -161 31q-89 0 -156 -57l-80 145q40 34 97 56t114 22q67 0 180 -33q103 -31 164 -31
q97 0 156 56z" />
    <glyph glyph-name="adieresis" unicode="&#xe4;" horiz-adv-x="1415" 
d="M1274 1114v-1114h-213v195q-57 -110 -168 -169t-246 -59q-130 0 -239.5 48.5t-181 130t-111 188t-39.5 223.5q0 167 75 302.5t205.5 211.5t290.5 76q153 0 261.5 -69t152.5 -160v196h213zM289 555v-2q1 -52 15 -104.5t45.5 -103.5t75.5 -90.5t109.5 -64t143.5 -24.5
q123 0 213 60.5t133 160.5q36 73 39 166q3 92 -33 166q-42 102 -135 165.5t-221 63.5q-170 0 -277.5 -115.5t-107.5 -277.5zM578 1563v-277h-207v277h207zM993 1563v-277h-207v277h207z" />
    <glyph glyph-name="aring" unicode="&#xe5;" horiz-adv-x="1415" 
d="M1274 1114v-1114h-213v195q-57 -110 -168 -169t-246 -59q-130 0 -239.5 48.5t-181 130t-111 188t-39.5 223.5q0 167 75 302.5t205.5 211.5t290.5 76q153 0 261.5 -69t152.5 -160v196h213zM289 555v-2q1 -52 15 -104.5t45.5 -103.5t75.5 -90.5t109.5 -64t143.5 -24.5
q123 0 213 60.5t133 160.5q36 73 39 166q3 92 -33 166q-42 102 -135 165.5t-221 63.5q-170 0 -277.5 -115.5t-107.5 -277.5zM676 1663h2q92 0 158.5 -66.5t66.5 -160.5q0 -92 -66.5 -159t-160.5 -67t-160.5 67t-66.5 159q0 94 66.5 160.5t160.5 66.5zM676 1546h-2
q-44 0 -75.5 -32t-31.5 -76t32.5 -75.5t76.5 -31.5t76 31.5t32 75.5q0 45 -31.5 76.5t-76.5 31.5z" />
    <glyph glyph-name="ae" unicode="&#xe6;" horiz-adv-x="2291" 
d="M2214 496h-946q8 -80 38 -143t69.5 -100t88.5 -61t91.5 -33t82.5 -9q197 0 326 188h219q-72 -163 -207.5 -267t-320.5 -104q-135 0 -239.5 64.5t-160.5 179.5v-211h-196v211q-46 -108 -158.5 -176t-249.5 -68q-113 0 -210 37t-162.5 97.5t-112.5 138.5t-68.5 158
t-21.5 157q0 165 74 300.5t206.5 213.5t296.5 78q138 0 246 -64t160 -172v203h196v-201q61 113 163.5 173.5t230.5 60.5q117 0 220 -44.5t181 -125.5q84 -85 129.5 -209.5t34.5 -271.5zM289 561v-2q0 -171 112 -282t279 -111q157 0 268 115.5t111 273.5q0 163 -107 276
q-114 117 -278 117q-89 0 -164 -35t-122 -91.5t-73 -124t-26 -136.5zM1272 643h733q-33 160 -131 241t-234 81q-165 0 -272 -115q-44 -48 -64.5 -97.5t-31.5 -109.5z" />
    <glyph glyph-name="ccedilla" unicode="&#xe7;" horiz-adv-x="1304" 
d="M686 -31l-41 -82q17 7 37 7q65 0 114.5 -46.5t49.5 -121.5q0 -74 -51.5 -130.5t-143.5 -56.5q-14 0 -30 2t-43.5 11t-49 25t-41.5 48.5t-26 75.5h110q20 -63 80 -63q36 0 59.5 23.5t24.5 64.5q-1 36 -25 57.5t-57 21.5q-43 0 -67 -38l-94 43l77 167q-215 33 -354 194.5
t-139 387.5q0 121 45 230t122.5 187.5t186.5 124.5t232 46q203 0 363 -117t212 -315h-219q-42 107 -137 168t-211 61q-84 0 -149 -26t-124 -82q-50 -48 -79 -122t-29 -157q0 -170 109.5 -280.5t271.5 -110.5q130 1 220 66.5t128 158.5h219q-52 -181 -200 -298t-351 -124z
" />
    <glyph glyph-name="egrave" unicode="&#xe8;" horiz-adv-x="1298" 
d="M1229 489h-953q4 -81 39 -147.5t89.5 -107t118 -62.5t128.5 -22q111 0 193 49.5t129 138.5h221q-78 -182 -225 -277q-140 -94 -318 -94q-132 0 -245 50.5t-187.5 133t-116 188t-41.5 216.5q0 158 75.5 293.5t211.5 217t301 81.5q119 0 225.5 -42.5t186.5 -121.5
q97 -98 139.5 -225.5t28.5 -268.5zM281 655h737q-4 56 -33 111.5t-76 100.5t-115.5 72t-144.5 26q-155 0 -257.5 -94t-110.5 -216zM410 1638l491 -272l-65 -131l-496 250z" />
    <glyph glyph-name="eacute" unicode="&#xe9;" horiz-adv-x="1298" 
d="M1229 489h-953q4 -81 39 -147.5t89.5 -107t118 -62.5t128.5 -22q111 0 193 49.5t129 138.5h221q-78 -182 -225 -277q-140 -94 -318 -94q-132 0 -245 50.5t-187.5 133t-116 188t-41.5 216.5q0 158 75.5 293.5t211.5 217t301 81.5q119 0 225.5 -42.5t186.5 -121.5
q97 -98 139.5 -225.5t28.5 -268.5zM281 655h737q-4 56 -33 111.5t-76 100.5t-115.5 72t-144.5 26q-155 0 -257.5 -94t-110.5 -216zM395 1374l488 275l73 -156l-497 -250z" />
    <glyph glyph-name="ecircumflex" unicode="&#xea;" horiz-adv-x="1298" 
d="M1229 489h-953q4 -81 39 -147.5t89.5 -107t118 -62.5t128.5 -22q111 0 193 49.5t129 138.5h221q-78 -182 -225 -277q-140 -94 -318 -94q-132 0 -245 50.5t-187.5 133t-116 188t-41.5 216.5q0 158 75.5 293.5t211.5 217t301 81.5q119 0 225.5 -42.5t186.5 -121.5
q97 -98 139.5 -225.5t28.5 -268.5zM281 655h737q-4 56 -33 111.5t-76 100.5t-115.5 72t-144.5 26q-155 0 -257.5 -94t-110.5 -216zM725 1577l348 -295h-221l-203 152l-200 -152h-224l353 295h147z" />
    <glyph glyph-name="edieresis" unicode="&#xeb;" horiz-adv-x="1298" 
d="M1229 489h-953q4 -81 39 -147.5t89.5 -107t118 -62.5t128.5 -22q111 0 193 49.5t129 138.5h221q-78 -182 -225 -277q-140 -94 -318 -94q-132 0 -245 50.5t-187.5 133t-116 188t-41.5 216.5q0 158 75.5 293.5t211.5 217t301 81.5q119 0 225.5 -42.5t186.5 -121.5
q97 -98 139.5 -225.5t28.5 -268.5zM281 655h737q-4 56 -33 111.5t-76 100.5t-115.5 72t-144.5 26q-155 0 -257.5 -94t-110.5 -216zM541 1563v-277h-207v277h207zM956 1563v-277h-206v277h206z" />
    <glyph glyph-name="igrave" unicode="&#xec;" horiz-adv-x="491" 
d="M139 0v1114h213v-1114h-213zM-37 1638l492 -272l-64 -131l-497 250z" />
    <glyph glyph-name="iacute" unicode="&#xed;" horiz-adv-x="491" 
d="M139 0v1114h213v-1114h-213zM35 1374l489 275l72 -156l-496 -250z" />
    <glyph glyph-name="icircumflex" unicode="&#xee;" horiz-adv-x="491" 
d="M139 0v1114h213v-1114h-213zM324 1577l348 -295h-223l-201 152l-201 -152h-225l354 295h148z" />
    <glyph glyph-name="idieresis" unicode="&#xef;" horiz-adv-x="491" 
d="M139 0v1114h213v-1114h-213zM141 1563v-277h-204v277h204zM557 1563v-277h-207v277h207z" />
    <glyph glyph-name="eth" unicode="&#xf0;" horiz-adv-x="1341" 
d="M668 1264l-471 -134v148l307 86q-79 40 -260 104l223 66q127 -44 262 -117l422 117v-148l-266 -73q179 -113 284 -303q97 -183 97 -410q0 -139 -46.5 -257.5t-127 -199.5t-189.5 -127t-233 -47q-119 0 -226 40.5t-189 114t-130 185.5t-49 246q1 134 46 245t121 183.5
t174 112.5t206 41q88 0 171.5 -34.5t141.5 -96.5q-23 50 -70 100q-92 102 -198 158zM289 559v-2q0 -163 105 -276t278 -113q116 0 205 57.5t132.5 145t43.5 188.5q0 100 -47 188.5t-134 144.5t-194 56q-119 0 -209 -55t-135 -142.5t-45 -191.5z" />
    <glyph glyph-name="ntilde" unicode="&#xf1;" horiz-adv-x="1302" 
d="M139 0v1114h201v-172q43 92 139 149t238 56q103 -1 183 -31t129.5 -77.5t81.5 -113.5t44 -132t12 -140v-653h-215v604q0 161 -70 252t-225 90q-152 -1 -228.5 -88t-76.5 -237v-621h-213zM969 1520l80 -144q-96 -78 -215 -78q-59 0 -181 33q-114 31 -161 31
q-89 0 -156 -57l-80 145q40 34 97.5 56t113.5 22q67 0 180 -33q103 -31 164 -31q96 0 158 56z" />
    <glyph glyph-name="ograve" unicode="&#xf2;" horiz-adv-x="1341" 
d="M76 557v2q0 112 41 217t115 188t188 133t250 50t250 -50t188 -133t115 -188.5t41 -218.5t-41 -218t-115 -188t-188 -132.5t-250 -49.5t-250 49.5t-188 132.5t-115 188t-41 218zM289 557v-2q0 -165 110 -276t271 -111t271 111.5t110 277.5t-110 277.5t-271 111.5
t-271 -111.5t-110 -277.5zM430 1638l492 -272l-64 -131l-498 250z" />
    <glyph glyph-name="oacute" unicode="&#xf3;" horiz-adv-x="1341" 
d="M76 557v2q0 112 41 217t115 188t188 133t250 50t250 -50t188 -133t115 -188.5t41 -218.5t-41 -218t-115 -188t-188 -132.5t-250 -49.5t-250 49.5t-188 132.5t-115 188t-41 218zM289 557v-2q0 -165 110 -276t271 -111t271 111.5t110 277.5t-110 277.5t-271 111.5
t-271 -111.5t-110 -277.5zM416 1374l489 275l72 -156l-496 -250z" />
    <glyph glyph-name="ocircumflex" unicode="&#xf4;" horiz-adv-x="1341" 
d="M76 557v2q0 112 41 217t115 188t188 133t250 50t250 -50t188 -133t115 -188.5t41 -218.5t-41 -218t-115 -188t-188 -132.5t-250 -49.5t-250 49.5t-188 132.5t-115 188t-41 218zM289 557v-2q0 -165 110 -276t271 -111t271 111.5t110 277.5t-110 277.5t-271 111.5
t-271 -111.5t-110 -277.5zM748 1577l348 -295h-224l-200 152l-201 -152h-225l354 295h148z" />
    <glyph glyph-name="otilde" unicode="&#xf5;" horiz-adv-x="1341" 
d="M76 557v2q0 112 41 217t115 188t188 133t250 50t250 -50t188 -133t115 -188.5t41 -218.5t-41 -218t-115 -188t-188 -132.5t-250 -49.5t-250 49.5t-188 132.5t-115 188t-41 218zM289 557v-2q0 -165 110 -276t271 -111t271 111.5t110 277.5t-110 277.5t-271 111.5
t-271 -111.5t-110 -277.5zM987 1520l80 -144q-93 -78 -215 -78q-56 0 -178 33q-118 31 -162 31q-88 0 -158 -57l-80 145q40 34 97.5 56t113.5 22q72 0 181 -33q107 -31 163 -31q96 0 158 56z" />
    <glyph glyph-name="odieresis" unicode="&#xf6;" horiz-adv-x="1341" 
d="M76 557v2q0 112 41 217t115 188t188 133t250 50t250 -50t188 -133t115 -188.5t41 -218.5t-41 -218t-115 -188t-188 -132.5t-250 -49.5t-250 49.5t-188 132.5t-115 188t-41 218zM289 557v-2q0 -165 110 -276t271 -111t271 111.5t110 277.5t-110 277.5t-271 111.5
t-271 -111.5t-110 -277.5zM565 1563v-277h-205v277h205zM981 1563v-277h-205v277h205z" />
    <glyph glyph-name="divide" unicode="&#xf7;" horiz-adv-x="1228" 
d="M717 1096v-256h-205v256h205zM100 412v206h1028v-206h-1028zM717 190v-253h-205v253h205z" />
    <glyph glyph-name="oslash" unicode="&#xf8;" horiz-adv-x="1341" 
d="M1022 1184h217l-149 -205q174 -174 174 -422q0 -114 -41.5 -220t-115.5 -188.5t-187.5 -132t-247.5 -49.5q-160 0 -279 68l-76 -105h-217l150 203q-80 75 -127 186t-47 236q0 115 41 220.5t115 189t188.5 133t251.5 49.5q167 0 276 -68zM387 307l440 600q-67 39 -155 39
q-163 0 -273 -111.5t-110 -277.5q0 -79 26.5 -143.5t71.5 -106.5zM954 803l-438 -596q71 -41 154 -41q167 0 274 114t107 277q0 153 -97 246z" />
    <glyph glyph-name="ugrave" unicode="&#xf9;" horiz-adv-x="1304" 
d="M1165 1114v-1114h-200v172q-43 -92 -139 -149t-238 -56q-103 1 -183.5 30.5t-130 77t-81.5 113.5t-44 132.5t-12 140.5v653h213v-604q0 -344 297 -344q152 1 228.5 89.5t76.5 236.5v622h213zM346 1638l492 -272l-66 -131l-498 250z" />
    <glyph glyph-name="uacute" unicode="&#xfa;" horiz-adv-x="1304" 
d="M1165 1114v-1114h-200v172q-43 -92 -139 -149t-238 -56q-103 1 -183.5 30.5t-130 77t-81.5 113.5t-44 132.5t-12 140.5v653h213v-604q0 -344 297 -344q152 1 228.5 89.5t76.5 236.5v622h213zM442 1374l488 275l74 -156l-498 -250z" />
    <glyph glyph-name="ucircumflex" unicode="&#xfb;" horiz-adv-x="1304" 
d="M1165 1114v-1114h-200v172q-43 -92 -139 -149t-238 -56q-103 1 -183.5 30.5t-130 77t-81.5 113.5t-44 132.5t-12 140.5v653h213v-604q0 -344 297 -344q152 1 228.5 89.5t76.5 236.5v622h213zM729 1577l348 -295h-223l-201 152l-200 -152h-226l355 295h147z" />
    <glyph glyph-name="udieresis" unicode="&#xfc;" horiz-adv-x="1304" 
d="M1165 1114v-1114h-200v172q-43 -92 -139 -149t-238 -56q-103 1 -183.5 30.5t-130 77t-81.5 113.5t-44 132.5t-12 140.5v653h213v-604q0 -344 297 -344q152 1 228.5 89.5t76.5 236.5v622h213zM547 1563v-277h-205v277h205zM963 1563v-277h-205v277h205z" />
    <glyph glyph-name="yacute" unicode="&#xfd;" horiz-adv-x="1089" 
d="M252 -406l184 439l-426 1081h230l307 -815l311 815h229l-608 -1520h-227zM362 1374l488 275l74 -156l-498 -250z" />
    <glyph glyph-name="thorn" unicode="&#xfe;" horiz-adv-x="1411" 
d="M139 -406v1922h213v-451v-137q63 109 176.5 164t241.5 55q134 0 244 -52t178.5 -137.5t105.5 -190.5t37 -216q0 -162 -72 -295.5t-201.5 -211t-289.5 -77.5q-152 0 -259.5 64t-160.5 153v-141v-449h-213zM1122 557v2q0 159 -108 273t-281 114q-166 0 -278 -115
q-113 -116 -113 -278q0 -147 109 -266q114 -121 282 -121q170 0 279.5 114t109.5 277z" />
    <glyph glyph-name="ydieresis" unicode="&#xff;" horiz-adv-x="1089" 
d="M252 -406l184 439l-426 1081h230l307 -815l311 815h229l-608 -1520h-227zM440 1563v-277h-207v277h207zM856 1563v-277h-207v277h207z" />
    <glyph glyph-name="dotlessi" unicode="&#x131;" horiz-adv-x="491" 
d="M139 0v1114h213v-1114h-213z" />
    <glyph glyph-name="Lslash" unicode="&#x141;" horiz-adv-x="937" 
d="M8 436v244l148 108v728h241v-553l267 192v-244l-267 -196v-502h535v-213h-776v545z" />
    <glyph glyph-name="lslash" unicode="&#x142;" horiz-adv-x="587" 
d="M184 606l-141 -98v223l141 96v689h213v-553l164 112v-219l-164 -115v-741h-213v606z" />
    <glyph glyph-name="OE" unicode="&#x152;" horiz-adv-x="2308" 
d="M1647 1303v-431h538v-210h-538v-449h548v-213h-782v133v133q-92 -140 -240.5 -217.5t-312.5 -77.5q-218 0 -398 104t-282 284t-102 397q0 127 36 245.5t105.5 216.5t163.5 171t217.5 114t261.5 41q201 0 344.5 -83.5t206.5 -211.5v135v132h782v-213h-548zM317 756v-2
q0 -108 38.5 -210t107 -182.5t172.5 -129t227 -48.5q122 0 226 47.5t174 127t109.5 184.5t39.5 219q-2 157 -70 286.5t-193.5 206t-283.5 76.5q-161 0 -287.5 -79.5t-193 -210t-66.5 -285.5z" />
    <glyph glyph-name="oe" unicode="&#x153;" horiz-adv-x="2277" 
d="M2200 498h-947q10 -161 115.5 -254.5t251.5 -93.5q110 0 195.5 50t128.5 138h221q-71 -161 -189 -252q-158 -119 -350 -119q-96 0 -178.5 25.5t-139.5 68.5t-96 91t-63 102q-61 -130 -186.5 -208.5t-298.5 -78.5q-113 0 -210 35.5t-165.5 95t-117 136t-72 158.5
t-23.5 163q0 160 73.5 294.5t211.5 216t313 81.5q158 0 286.5 -80t188.5 -205q23 46 62 92t96.5 90t140 71.5t174.5 27.5q121 0 228 -45.5t186 -128.5q92 -94 136.5 -219t27.5 -252zM289 557v-2q0 -163 110.5 -276t272.5 -113q110 0 198.5 59t133.5 147t45 183q0 98 -46 187
t-134 147.5t-197 58.5q-157 0 -270 -109.5t-113 -281.5zM1262 645h725q-7 56 -34.5 111t-72 101.5t-111.5 75t-145 28.5q-139 0 -241 -88t-121 -228z" />
    <glyph glyph-name="Scaron" unicode="&#x160;" horiz-adv-x="1122" 
d="M70 449h239q5 -65 25.5 -115.5t48 -79t62.5 -47.5t64 -25t56 -6q102 0 177 71t75 171q0 38 -9 68.5t-30 55t-42 42t-61 36t-69.5 30t-82.5 30.5q-29 10 -44 16q-36 12 -59.5 20.5t-67.5 28.5t-74.5 40t-67.5 53.5t-59.5 70.5t-38.5 88.5t-16 110.5q-1 102 40 186.5
t109 138t152.5 82.5t175.5 29q61 0 120.5 -13t119 -44.5t105 -78.5t76.5 -119.5t36 -162.5h-237q-6 30 -13 54t-24 55.5t-40 52.5t-62 36t-89 15q-95 0 -162 -59.5t-67 -153.5q0 -42 13.5 -74.5t37.5 -56.5t68 -46.5t92.5 -42t124.5 -47.5l10.5 -3.5t9.5 -3.5
q66 -28 111.5 -51t97.5 -61t83 -78.5t52 -100.5t21 -131q0 -93 -31.5 -175.5t-91.5 -146t-154.5 -100.5t-212.5 -37q-226 0 -360 129t-137 349zM137 1921h223l201 -152l201 152h223l-350 -295h-150z" />
    <glyph glyph-name="scaron" unicode="&#x161;" horiz-adv-x="954" 
d="M842 823h-211q0 68 -41.5 109.5t-120.5 40.5q-75 0 -118.5 -42.5t-41.5 -101.5q3 -62 53.5 -98t149.5 -63q51 -14 74.5 -21t69.5 -24t69.5 -31.5t56 -41t49 -55.5t29.5 -71t14 -92q3 -160 -112.5 -262.5t-284.5 -102.5q-69 0 -136.5 20.5t-127.5 61t-98.5 111.5
t-42.5 162h211q4 -63 37 -106t74 -59t85 -16q77 0 130 48t53 118q-1 78 -61 118.5t-224 94.5q-63 19 -110 42t-87.5 56.5t-61.5 81.5t-22 109q0 153 108.5 245.5t266.5 92.5q49 0 96.5 -9.5t96 -33.5t85.5 -59.5t62.5 -93t30.5 -128.5zM53 1565h223l201 -152l201 152h223
l-350 -295h-150z" />
    <glyph glyph-name="Ydieresis" unicode="&#x178;" horiz-adv-x="1239" 
d="M500 0v539l-475 977h262l334 -750l333 750h263l-476 -977v-539h-241zM514 1915v-277h-205v277h205zM930 1915v-277h-205v277h205z" />
    <glyph glyph-name="Zcaron" unicode="&#x17d;" horiz-adv-x="1021" 
d="M979 1327l-649 -1114h667v-213h-960v156l670 1147h-682v213h954v-189zM82 1909h223l203 -152l201 152h223l-352 -293h-150z" />
    <glyph glyph-name="zcaron" unicode="&#x17e;" horiz-adv-x="874" 
d="M29 0v152l565 796h-549v166h784v-168l-546 -780h563v-166h-817zM31 1559h223l201 -152l200 152h224l-351 -293h-149z" />
    <glyph glyph-name="florin" unicode="&#x192;" 
d="M793 1057h211v-166h-240l-148 -813q-15 -83 -25 -127.5t-34 -105.5t-59 -107q-62 -81 -155.5 -122.5t-205.5 -41.5q-71 0 -117 14l35 195q50 -12 70 -12q60 0 105 16.5t71 39.5t45 64t27.5 73t17.5 83l152 844h-213v166h241q19 128 54.5 220t103.5 157q113 110 289 110
q36 0 74 -6l-31 -174q-35 0 -55 -2q-88 -12 -134 -70q-24 -26 -41.5 -73.5t-23 -75t-14.5 -86.5z" />
    <glyph glyph-name="circumflex" unicode="&#x2c6;" horiz-adv-x="1136" 
d="M645 1577l348 -295h-223l-201 152l-202 -152h-224l355 295h147z" />
    <glyph glyph-name="caron" unicode="&#x2c7;" horiz-adv-x="1136" 
d="M143 1565h224l200 -152l203 152h223l-352 -295h-149z" />
    <glyph glyph-name="uni02C9" unicode="&#x2c9;" horiz-adv-x="1136" 
d="M934 1505v-170h-733v170h733z" />
    <glyph glyph-name="breve" unicode="&#x2d8;" horiz-adv-x="1136" 
d="M160 1534h174q40 -47 86 -66q58 -22 153 -22q81 0 143 24.5t87 63.5h174q-20 -113 -132 -180.5t-278 -67.5q-149 0 -262.5 64t-144.5 184z" />
    <glyph glyph-name="dotaccent" unicode="&#x2d9;" horiz-adv-x="1136" 
d="M672 1563v-277h-207v277h207z" />
    <glyph glyph-name="ring" unicode="&#x2da;" horiz-adv-x="1136" 
d="M567 1663h2q93 0 159.5 -66.5t66.5 -160.5q0 -92 -67 -159t-161 -67q-93 0 -159 66.5t-66 159.5q0 94 65.5 160.5t159.5 66.5zM567 1546h-2q-44 0 -75 -32t-31 -76t32 -75.5t76 -31.5t76.5 31.5t32.5 75.5t-32 76t-77 32z" />
    <glyph glyph-name="ogonek" unicode="&#x2db;" horiz-adv-x="1136" 
d="M553 0h121q-4 -3 -23.5 -16.5t-24.5 -17t-21 -16t-21 -18t-17 -17.5t-16 -20.5t-10.5 -20t-8.5 -23.5t-2 -25q0 -50 36.5 -84.5t86.5 -34.5q35 0 105 25v-123q-86 -31 -150 -31q-107 0 -168 56.5t-61 142.5q0 69 43.5 118.5t130.5 104.5z" />
    <glyph glyph-name="tilde" unicode="&#x2dc;" horiz-adv-x="1136" 
d="M885 1520l80 -144q-93 -78 -215 -78q-55 0 -181 33q-114 31 -161 31q-86 0 -156 -57l-80 145q40 34 97.5 56t113.5 22q67 0 180 -33q107 -31 164 -31q96 0 158 56z" />
    <glyph glyph-name="hungarumlaut" unicode="&#x2dd;" horiz-adv-x="1136" 
d="M195 1352l340 299l120 -127l-354 -283zM594 1352l340 299l123 -127l-357 -283z" />
    <glyph glyph-name="uni03A9" unicode="&#x3a9;" horiz-adv-x="1548" 
d="M403 178v6q-120 110 -199 275t-79 368q0 200 83.5 362.5t234 256.5t337.5 94q117 0 220.5 -39.5t179 -107t130 -156.5t82 -190.5t27.5 -206.5q0 -209 -82 -381t-200 -275v-6h313v-178h-545v131q59 38 110 97.5t93.5 140.5t67 191t24.5 235q0 105 -28 204.5t-79 180
t-133 129.5t-182 49q-129 0 -228.5 -75.5t-152.5 -205t-53 -291.5q0 -226 87 -402.5t210 -252.5v-131h-547v178h309z" />
    <glyph glyph-name="uni03BC" unicode="&#x3bc;" horiz-adv-x="1230" 
d="M131 -381v1495h213v-586q0 -177 57 -260q74 -102 211 -102q138 0 209 110q72 106 72 297v541h213v-1114h-205v186q-90 -209 -287 -209q-184 0 -270 144v-139v-363h-213z" />
    <glyph glyph-name="pi" unicode="&#x3c0;" horiz-adv-x="1269" 
d="M1214 948h-163v-626q0 -204 30 -322h-211q-36 64 -36 307v641h-349q-8 -219 -50.5 -508.5t-98.5 -439.5h-211q57 177 98.5 458.5t46.5 489.5q-146 0 -227 -24l-29 143q93 66 334 66h885z" />
    <glyph glyph-name="endash" unicode="&#x2013;" horiz-adv-x="1024" 
d="M72 686h880v-211h-880v211z" />
    <glyph glyph-name="emdash" unicode="&#x2014;" horiz-adv-x="2048" 
d="M72 686h1904v-211h-1904v211z" />
    <glyph glyph-name="quoteleft" unicode="&#x2018;" horiz-adv-x="608" 
d="M371 1516l153 -424h-166l-178 424h191z" />
    <glyph glyph-name="quoteright" unicode="&#x2019;" horiz-adv-x="608" 
d="M84 1092l154 424h192l-180 -424h-166z" />
    <glyph glyph-name="quotesinglbase" unicode="&#x201a;" horiz-adv-x="608" 
d="M84 -182l154 424h192l-180 -424h-166z" />
    <glyph glyph-name="quotedblleft" unicode="&#x201c;" horiz-adv-x="966" 
d="M414 1516l153 -424h-166l-178 424h191zM705 1516l153 -424h-166l-178 424h191z" />
    <glyph glyph-name="quotedblright" unicode="&#x201d;" horiz-adv-x="966" 
d="M109 1092l153 424h191l-179 -424h-165zM399 1092l154 424h190l-178 -424h-166z" />
    <glyph glyph-name="quotedblbase" unicode="&#x201e;" horiz-adv-x="966" 
d="M109 -182l153 424h191l-179 -424h-165zM399 -182l154 424h190l-178 -424h-166z" />
    <glyph glyph-name="dagger" unicode="&#x2020;" horiz-adv-x="1284" 
d="M750 1516v-398h348v-184h-348v-1301h-215v1301h-349v184h349v398h215z" />
    <glyph glyph-name="daggerdbl" unicode="&#x2021;" horiz-adv-x="1284" 
d="M750 1516v-336h348v-187h-348v-743h348v-187h-348v-430h-213v430h-351v187h351v743h-351v187h351v336h213z" />
    <glyph glyph-name="bullet" unicode="&#x2022;" horiz-adv-x="1179" 
d="M592 1022h2q103 0 175.5 -75t72.5 -179t-74 -178t-178 -74q-105 0 -178.5 74.5t-73.5 177.5q0 105 72.5 179.5t181.5 74.5z" />
    <glyph glyph-name="ellipsis" unicode="&#x2026;" horiz-adv-x="2048" 
d="M231 0v268h224v-268h-224zM913 0v268h224v-268h-224zM1595 0v268h224v-268h-224z" />
    <glyph glyph-name="perthousand" unicode="&#x2030;" horiz-adv-x="2420" 
d="M59 1190v2q0 148 102 250t251 102q150 0 252 -102t102 -252q0 -149 -102.5 -250.5t-251.5 -101.5q-148 0 -250.5 101.5t-102.5 250.5zM211 1190v-2q0 -86 57 -144.5t144 -58.5q86 0 144 59t58 148q0 88 -57.5 146.5t-144.5 58.5t-144 -58.5t-57 -148.5zM860 326v2
q0 148 102 250t252 102q148 0 250.5 -102.5t102.5 -251.5q0 -150 -103 -252.5t-250 -102.5q-150 0 -252 101.5t-102 253.5zM1012 326v-2q0 -87 57 -146t145 -59q86 0 143.5 59t57.5 148t-57 146.5t-144 57.5q-89 0 -145.5 -58t-56.5 -146zM1657 326v2q0 148 101.5 250
t250.5 102t251.5 -102.5t102.5 -251.5q0 -150 -103 -252.5t-251 -102.5q-149 0 -250.5 101.5t-101.5 253.5zM1806 326v-2q0 -87 58 -146t145 -59q88 0 145.5 59t57.5 148t-57.5 146.5t-145.5 57.5t-145.5 -58t-57.5 -146zM1272 1516l-766 -1516h-160l766 1516h160z" />
    <glyph glyph-name="guilsinglleft" unicode="&#x2039;" horiz-adv-x="479" 
d="M55 573l215 383h164l-215 -383l215 -380h-164z" />
    <glyph glyph-name="guilsinglright" unicode="&#x203a;" horiz-adv-x="479" 
d="M209 956l215 -383l-215 -380h-164l215 380l-215 383h164z" />
    <glyph glyph-name="fraction" unicode="&#x2044;" horiz-adv-x="317" 
d="M-260 0l653 1516h182l-653 -1516h-182z" />
    <glyph glyph-name="Euro" unicode="&#x20ac;" horiz-adv-x="1136" 
d="M848 702l-29 -155h-411q42 -381 268 -381q31 0 55 3.5t54.5 17.5t53 38.5t42.5 70t30 107.5h203q-9 -119 -48.5 -205t-102.5 -134.5t-137.5 -70.5t-163.5 -22q-413 0 -476 576h-184l29 155h145v58q0 14 1 39t1 37h-176l29 155h157q66 557 482 557q90 0 164.5 -28.5
t121 -71.5t80.5 -100t50 -108.5t22 -102.5h-199q-21 104 -84.5 160.5t-152.5 56.5q-116 0 -179 -89t-85 -274h491l-29 -155h-475v-76v-58h453z" />
    <glyph glyph-name="afii61289" unicode="&#x2113;" horiz-adv-x="1081" 
d="M942 358l94 -90q-148 -288 -426 -288q-92 0 -163 30.5t-114.5 84t-67.5 120t-29 145.5q0 13 -3 25q-20 -15 -59 -47.5t-57 -46.5l-60 121q15 12 56 45.5t67.5 56.5t50.5 47v569q0 114 20 205.5t53.5 152.5t80 102t98 59t109.5 18q141 0 214 -103t73 -266
q0 -188 -113 -377.5t-326 -396.5v-82q3 -144 63 -216t154 -72q88 0 161.5 59.5t123.5 144.5zM440 1141v-412q295 330 295 574q0 206 -137 206q-64 0 -111 -87t-47 -281z" />
    <glyph glyph-name="trademark" unicode="&#x2122;" horiz-adv-x="2027" 
d="M756 606v910h213l293 -682l288 682h213v-910h-157v713l-291 -713h-111l-291 709v-709h-157zM248 606v768h-215v142h600v-142h-217v-768h-168z" />
    <glyph glyph-name="Omega" unicode="&#x2126;" horiz-adv-x="1548" 
d="M403 178v6q-120 110 -199 275t-79 368q0 200 83.5 362.5t234 256.5t337.5 94q117 0 220.5 -39.5t179 -107t130 -156.5t82 -190.5t27.5 -206.5q0 -209 -82 -381t-200 -275v-6h313v-178h-545v131q59 38 110 97.5t93.5 140.5t67 191t24.5 235q0 105 -28 204.5t-79 180
t-133 129.5t-182 49q-129 0 -228.5 -75.5t-152.5 -205t-53 -291.5q0 -226 87 -402.5t210 -252.5v-131h-547v178h309z" />
    <glyph glyph-name="estimated" unicode="&#x212e;" horiz-adv-x="1896" 
d="M1821 735h-1415q-11 0 -11 -8v-428q0 -27 19 -49q106 -109 244 -171.5t290 -62.5q165 0 311.5 69.5t251.5 190.5h125q-120 -139 -301.5 -221t-388.5 -82q-237 0 -437.5 105t-317.5 286t-117 394q0 160 69 305.5t186 250.5t278.5 167.5t338.5 62.5q178 0 340 -62.5
t279 -167.5t186.5 -250.5t69.5 -305.5v-23zM1499 793v430q0 31 -20 51q-106 104 -243 163.5t-288 59.5t-288.5 -61.5t-243.5 -169.5q-21 -21 -21 -54v-419q0 -5 3.5 -10t7.5 -5h1085q8 0 8 15z" />
    <glyph glyph-name="partialdiff" unicode="&#x2202;" horiz-adv-x="1214" 
d="M223 1419l-67 162q162 123 379 123q91 0 174.5 -32t156 -99t126 -163t84 -232t30.5 -297q0 -264 -66.5 -465.5t-200.5 -317.5t-319 -116q-86 0 -158.5 29.5t-122.5 79t-85 115t-51.5 137t-16.5 144.5q0 126 37.5 232.5t101 178t148 111.5t178.5 40q67 0 127.5 -21
t102.5 -53t68.5 -61.5t41.5 -55.5h2q2 20 2 84q0 248 -111 415t-276 167q-163 0 -285 -105zM541 162h2q88 0 159.5 75t112.5 186.5t55 240.5q-25 75 -100 142.5t-178 67.5q-122 0 -206.5 -115.5t-84.5 -275.5q0 -139 66.5 -230t173.5 -91z" />
    <glyph glyph-name="Delta" unicode="&#x2206;" horiz-adv-x="1413" 
d="M63 0v135l521 1417h256l510 -1415v-137h-1287zM285 176h831l-276 737q-15 51 -67 198t-66 200h-9q-10 -45 -58.5 -184.5t-61.5 -180.5z" />
    <glyph glyph-name="product" unicode="&#x220f;" horiz-adv-x="1538" 
d="M1483 1319h-230v-1528h-215v1528h-540v-1528h-213v1528h-230v197h1428v-197z" />
    <glyph glyph-name="summation" unicode="&#x2211;" horiz-adv-x="1204" 
d="M1159 -209h-1110v141l555 719l-532 713v152h1052v-187h-757v-6l483 -637l-528 -686v-6h837v-203z" />
    <glyph glyph-name="minus" unicode="&#x2212;" horiz-adv-x="1228" 
d="M100 412v206h1028v-206h-1028z" />
    <glyph glyph-name="uni2215" unicode="&#x2215;" horiz-adv-x="317" 
d="M-260 0l653 1516h182l-653 -1516h-182z" />
    <glyph glyph-name="uni2219" unicode="&#x2219;" horiz-adv-x="608" 
d="M418 653v-266h-223v266h223z" />
    <glyph glyph-name="radical" unicode="&#x221a;" horiz-adv-x="1261" 
d="M1270 1810l-484 -2123h-180l-336 979l-159 -64l-39 127l331 131l250 -751q7 -30 21.5 -88.5t19.5 -81.5l4 -2q4 28 31 178l387 1695h154z" />
    <glyph glyph-name="infinity" unicode="&#x221e;" horiz-adv-x="1687" 
d="M1577 629v-2q0 -161 -100.5 -261t-237.5 -100q-99 0 -191.5 59t-201.5 195q-51 -60 -89 -98t-89.5 -78t-108 -59t-119.5 -19q-136 0 -235 100.5t-99 251.5q0 155 100 256t251 101q112 0 205 -65t190 -185q6 7 18 20q39 44 61 67t64 59.5t76 55t82.5 33.5t99.5 15
q142 -2 233 -97t91 -249zM457 393h2q24 0 48.5 6.5t43 13.5t44 25t38.5 27.5t39.5 36t34.5 35t36.5 39.5t32.5 36q-89 113 -130 151q-96 89 -200 89q-95 0 -151.5 -68t-56.5 -170q0 -92 62 -156.5t157 -64.5zM1239 852h-2q-40 0 -78 -14.5t-75 -45t-60 -52t-59.5 -63.5
t-46.5 -52q110 -130 178 -181t149 -51q91 0 147 69t56 154q0 107 -58 171.5t-151 64.5z" />
    <glyph glyph-name="integral" unicode="&#x222b;" horiz-adv-x="815" 
d="M772 1835l-27 -149q-40 20 -77 20q-69 0 -111 -53q-36 -46 -50.5 -135.5t-14.5 -241.5q0 -170 15 -524t15 -543q0 -296 -86 -436q-38 -67 -104.5 -101t-141.5 -34q-88 0 -153 36l31 156q50 -25 96 -25q62 0 98 45q66 93 66 357q0 191 -15.5 552.5t-15.5 536.5
q0 185 28.5 295.5t94.5 180.5q87 90 227 90q73 0 125 -27z" />
    <glyph glyph-name="approxequal" unicode="&#x2248;" 
d="M1032 956l80 -73q-49 -97 -122 -156t-163 -59q-61 0 -111.5 20t-137.5 70q-43 26 -66 38t-59 23.5t-70 11.5q-66 0 -113 -41t-96 -118l-84 73q51 97 132 155t175 58q30 0 57.5 -5t56 -16.5t43 -18.5t45 -24.5t34.5 -19.5q10 -6 41.5 -24t42 -23t33 -14.5t40.5 -12.5
t39 -3q62 0 108.5 39t94.5 120zM1032 569l80 -73q-50 -97 -122 -155t-165 -58q-59 0 -108.5 19.5t-138.5 68.5q-41 26 -65.5 39t-60 24.5t-69.5 11.5q-36 0 -66.5 -12.5t-56.5 -38.5t-43.5 -49t-42.5 -61l-84 73q51 98 132 156.5t175 58.5q30 0 58 -5t56 -16.5t43.5 -19
t44 -24t34.5 -19.5q8 -4 38.5 -22t41.5 -23t34 -15t42.5 -13.5t41.5 -3.5q61 0 106 38t95 119z" />
    <glyph glyph-name="notequal" unicode="&#x2260;" 
d="M870 1102l-90 -203h318v-131h-369l-137 -305h506v-131h-557l-113 -252l-104 45l94 207h-312v131h363l137 305h-500v131h551l111 248z" />
    <glyph glyph-name="lessequal" unicode="&#x2264;" 
d="M1094 211l-975 487v142l973 485v-156l-838 -397v-4l840 -401v-156zM1100 -6h-991v133h991v-133z" />
    <glyph glyph-name="greaterequal" unicode="&#x2265;" 
d="M123 1325l973 -487v-140l-973 -487v156l838 399v4l-838 399v156zM1098 -6h-987v133h987v-133z" />
    <glyph glyph-name="lozenge" unicode="&#x25ca;" horiz-adv-x="1261" 
d="M1147 756l-434 -858h-174l-424 858l432 860h174zM954 752l-280 565q-32 86 -41 121h-6q-12 -54 -41 -121l-279 -555l281 -572q28 -67 39 -116h8q12 58 37 114z" />
    </font>
</defs>
</svg>
