<?xml version="1.0" standalone="no"?>
<!DOCTYPE svg PUBLIC "-//W3C//DTD SVG 1.1//EN" "http://www.w3.org/Graphics/SVG/1.1/DTD/svg11.dtd" >
<svg xmlns="http://www.w3.org/2000/svg" xmlns:xlink="http://www.w3.org/1999/xlink" version="1.1">
<metadata>
Created by FontForge 20170731 at Fri Aug 27 17:58:37 2021
 By Aleksey,,,
(c) 1993, 1994, 2001, 2002 Adobe Systems Incorporated. All rights reserved.
</metadata>
<defs>
<font id="ITCAvantGardeStd-MdObl" horiz-adv-x="1208" >
  <font-face 
    font-family="ITC Avant Garde Std Md"
    font-weight="500"
    font-style="italic"
    font-stretch="normal"
    units-per-em="2048"
    panose-1="2 11 6 2 2 2 2 2 2 4"
    ascent="1638"
    descent="-410"
    x-height="1114"
    cap-height="1516"
    bbox="-260 -594 2476 2013"
    underline-thickness="102"
    underline-position="-307"
    slope="-10.5"
    unicode-range="U+0020-FB02"
  />
<missing-glyph horiz-adv-x="1288" 
d="M264 0v1434h1024v-1434h-1024zM776 809l348 522h-696zM838 717l348 -522v1044zM428 102h696l-348 523zM367 1239v-1044l348 522z" />
    <glyph glyph-name="f_i" unicode="fi" horiz-adv-x="1040" 
d="M864 948h-313l-176 -948h-213l176 948h-152l31 166h152l14 76q13 70 38.5 125.5t55.5 91.5t72.5 62.5t78.5 40t84.5 22t79.5 10t74 2.5l-30 -168q-20 -1 -27 -1t-29 -2t-32.5 -5.5t-31 -10t-32 -16t-28 -24.5t-27 -34t-20 -45t-15.5 -58l-12 -66h526l-207 -1114h-213z
M1141 1290h-213l41 226h213z" />
    <glyph glyph-name="f_l" unicode="fl" horiz-adv-x="1040" 
d="M864 948h-313l-176 -948h-213l176 948h-152l31 166h152l14 76q13 70 38.5 125.5t55.5 91.5t72.5 62.5t78.5 40t84.5 22t79.5 10t74 2.5l-30 -168q-20 -1 -27 -1t-29 -2t-32.5 -5.5t-31 -10t-32 -16t-28 -24.5t-27 -34t-20 -45t-15.5 -58l-12 -66h313l74 399h213
l-281 -1513h-213z" />
    <glyph glyph-name=".notdef" horiz-adv-x="1288" 
d="M264 0v1434h1024v-1434h-1024zM776 809l348 522h-696zM838 717l348 -522v1044zM428 102h696l-348 523zM367 1239v-1044l348 522z" />
    <glyph glyph-name=".null" horiz-adv-x="0" 
 />
    <glyph glyph-name="nonmarkingreturn" horiz-adv-x="682" 
 />
    <glyph glyph-name="space" unicode=" " horiz-adv-x="604" 
 />
    <glyph glyph-name="exclam" unicode="!" horiz-adv-x="614" 
d="M698 1516l-200 -1088h-222l201 1088h221zM467 266l-49 -266h-221l49 266h221z" />
    <glyph glyph-name="quotedbl" unicode="&#x22;" horiz-adv-x="829" 
d="M506 909h-166l113 607h165zM825 909h-168l113 607h168z" />
    <glyph glyph-name="numbersign" unicode="#" 
d="M915 510l-135 -418h-149l135 418h-219l-135 -418h-154l137 418h-250l43 145h254l68 209h-252l47 148h254l123 381h152l-123 -381h219l123 381h151l-123 -381h265l-48 -148h-268l-67 -209h264l-43 -145h-269zM813 655l68 209h-219l-68 -209h219z" />
    <glyph glyph-name="dollar" unicode="$" 
d="M1010 1661l-35 -188q138 -26 199.5 -125t37.5 -238h-202q9 89 -39 142t-119 53q-77 0 -143.5 -56t-83.5 -141q-10 -54 2 -92.5t55.5 -68t81 -45.5t117.5 -44q137 -53 204.5 -153.5t42.5 -235.5q-26 -139 -138 -255t-275 -151l-37 -200h-180l37 200q-105 13 -176 73.5
t-96.5 145t-10.5 179.5h221q-13 -106 40.5 -167t139.5 -61q90 0 162.5 63t87.5 150q10 50 -3 91.5t-34 67t-68 51t-78 37.5t-91 32q-278 89 -228 362q20 106 81.5 189.5t141 131t171.5 65.5l34 188h181z" />
    <glyph glyph-name="percent" unicode="%" horiz-adv-x="1630" 
d="M283 1190v2q28 148 148 250t269 102t232 -102.5t55 -251.5t-148.5 -250.5t-269.5 -101.5q-148 0 -231 101.5t-55 250.5zM434 1190l-2 -2q-15 -86 31 -144.5t133 -58.5q86 0 155.5 59t86.5 148q15 88 -32 146.5t-134 58.5q-88 0 -155.5 -59t-82.5 -148zM922 326l2 2
q26 148 147.5 250t271.5 102q148 0 230.5 -102.5t54.5 -251.5q-28 -150 -149.5 -252.5t-268.5 -102.5q-150 0 -233 101.5t-55 253.5zM1071 326v-2q-15 -87 32.5 -146t135.5 -59q87 0 155 59t83 148q17 89 -29 146.5t-133 57.5q-89 0 -158 -58t-86 -146zM1554 1516
l-1046 -1516h-160l1047 1516h159z" />
    <glyph glyph-name="ampersand" unicode="&#x26;" horiz-adv-x="1517" 
d="M1354 920h225l-350 -494l246 -309l-175 -144l-219 279q-45 -64 -91 -111.5t-105.5 -87.5t-135 -61t-163.5 -21q-109 0 -195 35.5t-136 95t-69.5 137.5t-3.5 164q13 70 47.5 133t75 107.5t97.5 86t100.5 66t97.5 50.5q-69 90 -98 168t-15 170q28 150 156.5 255t286.5 105
t245 -103.5t60 -250.5q-11 -58 -39 -109t-59 -85t-78.5 -67.5t-79.5 -51t-80 -41.5l213 -267zM897 1364h-2q-71 0 -127 -50t-68 -118q-3 -17 -3.5 -33t3.5 -32.5t6 -28.5t11.5 -29t13 -25t16 -25.5t16 -22t18.5 -23.5t16 -21q117 60 171 108t70 128q12 70 -26.5 121
t-114.5 51zM963 391l-256 322q-258 -119 -289 -291q-19 -103 42 -174.5t173 -71.5q107 0 181 53t149 162z" />
    <glyph glyph-name="quotesingle" unicode="'" horiz-adv-x="477" 
d="M489 909h-165l112 607h166z" />
    <glyph glyph-name="parenleft" unicode="(" horiz-adv-x="923" 
d="M1133 1544l-46 -239q-94 -47 -186 -123.5t-174.5 -178t-144.5 -233.5t-88 -272q-35 -189 -1 -349.5t111 -275.5t184 -180l-45 -242q-103 49 -187 118.5t-142.5 151.5t-98.5 175.5t-57.5 193.5t-17 203t19.5 207q29 154 101 308t180.5 294.5t261.5 257t330 184.5z" />
    <glyph glyph-name="parenright" unicode=")" horiz-adv-x="923" 
d="M-25 -549l45 238q95 47 187.5 123.5t175 178t145 233t88.5 272.5q35 189 0 349t-112.5 275t-184.5 180l46 244q103 -50 186.5 -119.5t142 -151.5t98.5 -175.5t58 -193.5t17.5 -203t-19.5 -207q-29 -154 -101 -308t-180.5 -295t-261.5 -257t-330 -183z" />
    <glyph glyph-name="asterisk" unicode="*" horiz-adv-x="1284" 
d="M997 1516l-90 -287l264 174l46 -129l-279 -109l242 -108l-101 -133l-196 176l-15 -285h-149l90 287l-260 -178l-51 133l280 110l-241 107l96 129l201 -172l14 285h149z" />
    <glyph glyph-name="plus" unicode="+" horiz-adv-x="1228" 
d="M907 1032l-76 -414h412l-39 -206h-411l-76 -412h-205l76 412h-412l39 206h412l75 414h205z" />
    <glyph glyph-name="comma" unicode="," horiz-adv-x="608" 
d="M467 268l-248 -424h-184l207 424h225z" />
    <glyph glyph-name="hyphen" unicode="-" horiz-adv-x="561" 
d="M127 686h561l-39 -211h-561z" />
    <glyph glyph-name="period" unicode="." horiz-adv-x="608" 
d="M467 266l-49 -266h-223l49 266h223z" />
    <glyph glyph-name="slash" unicode="/" horiz-adv-x="1144" 
d="M104 -205l940 1721h240l-940 -1721h-240z" />
    <glyph glyph-name="zero" unicode="0" 
d="M168 506l92 495q23 125 80.5 224t127 157t151.5 96.5t148.5 52t123.5 13.5q71 0 139 -19t131 -59.5t105 -103.5t60 -151t-5 -201l-92 -504q-18 -98 -59 -181t-95.5 -139.5t-116 -99.5t-126.5 -67.5t-122.5 -36t-107.5 -11.5q-53 0 -107.5 11.5t-111.5 37.5t-102 67.5
t-79 101t-42 138t8 179.5zM500 1010l-94 -510q-24 -133 39 -224.5t194 -91.5q122 0 222.5 93t123.5 223l96 516q5 32 5.5 64.5t-5.5 69t-23 68t-43 57.5t-69.5 41t-99.5 15q-132 0 -226 -92t-120 -229z" />
    <glyph glyph-name="one" unicode="1" 
d="M506 0l244 1311h-287l37 205h528l-280 -1516h-242z" />
    <glyph glyph-name="two" unicode="2" 
d="M111 0l34 190q104 82 292.5 234t258.5 207q156 122 209 174q128 124 156 254q23 126 -37.5 199t-175.5 73q-119 0 -203.5 -89.5t-114.5 -237.5h-231q48 222 184 360q64 68 148.5 111t150 56t127.5 13q110 0 195.5 -37.5t133 -101t67 -149t-1.5 -181.5
q-26 -125 -99.5 -227t-222.5 -225q-266 -223 -502 -418h670l-39 -205h-999z" />
    <glyph glyph-name="three" unicode="3" 
d="M594 1128h-238q20 88 63 160t97 118.5t118.5 78.5t126 45.5t120.5 13.5q182 0 280.5 -110.5t67.5 -276.5q-40 -209 -264 -319q72 -27 121.5 -70t71.5 -85.5t30.5 -92.5t7 -81.5t-7.5 -62.5q-37 -203 -212 -339t-394 -136q-124 0 -230 51t-157 144q-62 119 -39 280h243
q-14 -112 49.5 -186.5t180.5 -75.5q125 0 211.5 78.5t109.5 196.5q22 116 -52.5 192t-203.5 76h-112l32 182h72q114 0 197.5 64t99.5 151q15 89 -25.5 148t-126.5 59q-97 0 -156.5 -61t-80.5 -142z" />
    <glyph glyph-name="four" unicode="4" 
d="M743 0l52 279h-723l34 180l914 1057h237l-192 -1045h162l-37 -192h-162l-51 -279h-234zM356 471h490l139 752z" />
    <glyph glyph-name="five" unicode="5" 
d="M541 1516h768l-37 -205h-582l-137 -371q39 24 65.5 37t84.5 28t122 15q69 0 129 -16t104 -44t80 -67t57.5 -84.5t35 -96t12.5 -102t-8 -102.5q-19 -99 -74.5 -194t-137.5 -172t-196.5 -124t-238.5 -47q-206 0 -337 123.5t-124 329.5h242q4 -107 78 -173.5t176 -66.5
q127 0 237 94t133 224q25 130 -48.5 223.5t-205.5 93.5q-165 0 -295 -151l-186 49z" />
    <glyph glyph-name="six" unicode="6" 
d="M883 1516h276l-371 -420q-6 -6 -88 -99q76 39 164 39q91 0 170.5 -35t136.5 -99t80.5 -163t1.5 -217q-43 -234 -231.5 -392.5t-419.5 -158.5q-136 0 -237 50t-158 139q-49 73 -62 175.5t5 182.5q36 193 206 393zM383 500v-2q-25 -134 48 -224t204 -90q134 0 241 92.5
t132 225.5q27 142 -48 231.5t-202 89.5q-56 0 -114.5 -21t-111.5 -59.5t-93.5 -102t-55.5 -140.5z" />
    <glyph glyph-name="seven" unicode="7" 
d="M434 1516h905l-34 -189l-842 -1327h-264l854 1311h-656z" />
    <glyph glyph-name="eight" unicode="8" 
d="M369 1151v2q19 101 87 188.5t183 145t252 57.5q136 0 229.5 -56.5t128.5 -145t15 -191.5q-20 -109 -88 -187.5t-150 -119.5q110 -46 153.5 -150t18.5 -237q-40 -208 -210.5 -347t-389.5 -139q-220 0 -339.5 139t-82.5 347q27 132 109 235.5t209 151.5
q-66 42 -105.5 120.5t-19.5 186.5zM600 1133v-3q-15 -89 35.5 -148.5t138.5 -59.5q89 0 163 60.5t89 150.5q17 90 -33.5 151.5t-138.5 61.5t-162.5 -61.5t-91.5 -151.5zM420 459l-2 -2q-19 -109 43.5 -191t177.5 -82q116 0 208.5 82.5t113.5 192.5q21 111 -42.5 192.5
t-179.5 81.5q-117 0 -207.5 -81t-111.5 -193z" />
    <glyph glyph-name="nine" unicode="9" 
d="M608 0h-276l370 420q15 17 44.5 49.5t44.5 48.5q-76 -39 -164 -39q-92 0 -171.5 35t-136.5 99t-80 163t-1 217q43 234 231.5 392.5t419.5 158.5q135 0 237 -49.5t158 -138.5q33 -49 49.5 -114t15.5 -125t-10 -120q-37 -196 -204 -393zM1106 1016v2q25 135 -47.5 224
t-204.5 89q-133 0 -239.5 -91.5t-131.5 -225.5q-27 -140 47.5 -230t200.5 -90q78 0 155 35t139 110.5t81 176.5z" />
    <glyph glyph-name="colon" unicode=":" horiz-adv-x="608" 
d="M625 1114l-50 -266h-223l49 266h224zM467 266l-49 -266h-223l49 266h223z" />
    <glyph glyph-name="semicolon" unicode=";" horiz-adv-x="608" 
d="M623 1114l-50 -266h-223l49 266h224zM469 268l-260 -424h-174l209 424h225z" />
    <glyph glyph-name="less" unicode="&#x3c;" horiz-adv-x="1228" 
d="M213 618l1116 457l-41 -225l-874 -334l749 -334l-41 -225l-948 457z" />
    <glyph glyph-name="equal" unicode="=" horiz-adv-x="1228" 
d="M258 856h1028l-37 -205h-1028zM170 381h1028l-37 -207h-1028z" />
    <glyph glyph-name="greater" unicode="&#x3e;" horiz-adv-x="1228" 
d="M131 182l877 336l-752 332l41 225l948 -457l-39 -204l-1116 -457z" />
    <glyph glyph-name="question" unicode="?" horiz-adv-x="1161" 
d="M737 418h-225q23 109 82.5 198t189.5 195q110 91 160 148.5t66 130.5q18 99 -33 165t-156 66q-97 0 -175.5 -59t-110.5 -160q-9 -27 -15 -51h-233q1 10 4 25l4 20q35 139 128 243t209.5 154.5t239.5 50.5q135 0 231.5 -61.5t135 -160t16.5 -212.5q-8 -43 -24 -82.5
t-42.5 -77t-49 -65t-62.5 -63t-62.5 -54.5t-68.5 -55q-60 -49 -100.5 -91.5t-61.5 -80t-30.5 -63t-16.5 -60.5zM707 266l-50 -266h-223l49 266h224z" />
    <glyph glyph-name="at" unicode="@" horiz-adv-x="1576" 
d="M1401 299l29 -104q-72 -62 -161.5 -108.5t-173 -70.5t-152.5 -35.5t-122 -11.5q-96 0 -181 18.5t-151 51.5t-121 79t-93.5 102t-64.5 119.5t-38 131.5t-11.5 137.5t13.5 139.5q29 157 114.5 302.5t208.5 255t285 175t334 65.5q144 0 266 -48t203.5 -132.5t115.5 -208.5
t7 -268q-23 -123 -85 -231.5t-140 -178.5t-161.5 -110.5t-152.5 -40.5q-66 0 -112 35.5t-45 113.5q-60 -70 -126.5 -107.5t-152.5 -37.5q-49 0 -93 19.5t-77.5 59t-46 99.5t1.5 141q17 91 66.5 182.5t117.5 164t154.5 118t171.5 45.5q163 0 184 -143l54 115h143l-221 -496
q-1 -3 -10.5 -24.5t-17 -42t-9.5 -33.5q-21 -80 63 -80q42 0 96 31t107.5 84.5t98 137t61.5 177.5q23 122 -6 224t-97.5 168.5t-165.5 103t-210 36.5q-184 0 -352.5 -90.5t-283 -245t-149.5 -338.5q-10 -55 -10.5 -110.5t8 -112t29 -109t50.5 -100.5t74.5 -87.5t99 -68.5
t126 -45t154.5 -16q142 0 291.5 51t265.5 152zM666 655v-2q-8 -56 -1.5 -93t28.5 -59t46 -31t52 -9q89 0 156 59t110 139q2 3 16.5 30.5t22 43.5t19.5 41.5t19.5 47t10.5 38.5q12 75 -24.5 123.5t-100.5 48.5q-108 0 -217.5 -114.5t-136.5 -262.5z" />
    <glyph glyph-name="A" unicode="A" horiz-adv-x="1486" 
d="M483 358l-204 -358h-263l904 1516h219l331 -1516h-262l-78 358h-647zM1102 553l-133 682l-383 -682h516z" />
    <glyph glyph-name="B" unicode="B" horiz-adv-x="1226" 
d="M145 0l281 1516h453q210 0 307 -82q70 -49 92 -130t4 -178q-42 -216 -252 -317q51 -17 90 -44t62 -55t37.5 -63t19.5 -63t5.5 -61t-2 -51t-5.5 -38q-22 -113 -86.5 -203.5t-161.5 -142.5q-88 -54 -170.5 -71t-228.5 -17h-445zM629 1303l-78 -416h199q103 0 157 24
q114 56 137 187q13 65 -8 111t-61 67q-49 27 -154 27h-192zM514 684l-88 -471h244q100 0 166 25q141 58 174 211q13 76 -13.5 129t-83.5 79q-37 17 -74.5 22t-101.5 5h-223z" />
    <glyph glyph-name="C" unicode="C" horiz-adv-x="1660" 
d="M1423 461h254q-111 -212 -335 -351t-476 -139q-168 0 -304.5 63t-220 170t-117 252t-3.5 304q28 155 113 298t207 250.5t283.5 171.5t332.5 64q117 -1 218 -33t170.5 -82.5t122 -117t81 -132.5t39.5 -132h-256q-10 33 -29.5 67.5t-55 74t-80 70t-111 51t-142.5 21.5
q-118 0 -229 -46t-196 -124t-145 -182.5t-81 -218.5q-29 -156 16.5 -288t157.5 -210t268 -78q83 0 162.5 24.5t133.5 56t105.5 76t74 69.5t42.5 51z" />
    <glyph glyph-name="D" unicode="D" horiz-adv-x="1482" 
d="M145 0l281 1516h469q88 0 160.5 -9t154 -33t149.5 -75.5t114 -128.5q129 -200 71 -510q-31 -168 -103 -305.5t-184 -240t-271.5 -158.5t-354.5 -56h-486zM629 1303l-203 -1090h256q131 0 239 40.5t184.5 113.5t126 171t71.5 218q47 234 -52 387q-106 160 -364 160h-258z
" />
    <glyph glyph-name="E" unicode="E" horiz-adv-x="1099" 
d="M145 0l281 1516h848l-39 -213h-606l-80 -431h598l-39 -210h-598l-84 -449h606l-39 -213h-848z" />
    <glyph glyph-name="F" unicode="F" horiz-adv-x="1009" 
d="M145 0l281 1516h791l-39 -213h-549l-82 -443h540l-38 -211h-541l-121 -649h-242z" />
    <glyph glyph-name="G" unicode="G" horiz-adv-x="1748" 
d="M1804 1085h-272q-47 89 -113 144q-123 102 -301 102q-145 0 -282.5 -67.5t-241 -199.5t-135.5 -302q-20 -110 -7 -200.5t53.5 -160.5t101.5 -118.5t137.5 -73.5t162.5 -25q206 0 371 113q164 110 227 270h-653l37 197h934q-37 -196 -131 -340q-94 -145 -235.5 -250
t-291.5 -154t-297 -49q-166 0 -302 61.5t-222 167t-120.5 252t-4.5 310.5q41 222 182 402t342.5 280t419.5 100q241 0 418.5 -130t222.5 -329z" />
    <glyph glyph-name="H" unicode="H" horiz-adv-x="1429" 
d="M387 0h-242l281 1516h242l-119 -639h653l119 639h242l-281 -1516h-242l123 664h-653z" />
    <glyph glyph-name="I" unicode="I" horiz-adv-x="534" 
d="M145 0l281 1516h242l-281 -1516h-242z" />
    <glyph glyph-name="J" unicode="J" horiz-adv-x="1069" 
d="M1202 1516l-182 -990q-23 -115 -44.5 -186t-57.5 -125q-68 -103 -168 -160q-139 -84 -293 -84q-33 0 -73 6t-95.5 28t-99 56.5t-75.5 99.5t-34 150q0 41 6 88h258q-2 -12 -2 -37q6 -89 55.5 -133.5t112.5 -44.5q71 1 124 35.5t81 83.5q33 59 55 170l193 1043h239z" />
    <glyph glyph-name="K" unicode="K" horiz-adv-x="1290" 
d="M182 0l281 1516h242l-134 -717l689 717h256l-730 -756l508 -760h-297l-444 698l-129 -698h-242z" />
    <glyph glyph-name="L" unicode="L" horiz-adv-x="937" 
d="M152 0l280 1516h242l-242 -1303h535l-39 -213h-776z" />
    <glyph glyph-name="M" unicode="M" horiz-adv-x="1890" 
d="M371 0h-226l281 1516h332l254 -1174l682 1174h329l-280 -1516h-223l243 1278l-739 -1278h-158l-264 1278z" />
    <glyph glyph-name="N" unicode="N" horiz-adv-x="1536" 
d="M653 1516l574 -1154l209 1154h233l-280 -1516h-222l-577 1155l-211 -1155h-234l281 1516h227z" />
    <glyph glyph-name="O" unicode="O" horiz-adv-x="1742" 
d="M217 748v2q32 174 124 324.5t219.5 252.5t282.5 159.5t314 57.5q167 0 303.5 -62t221.5 -167.5t119.5 -250.5t4.5 -306q-41 -216 -178 -396t-340 -285.5t-426 -105.5q-167 0 -303.5 63t-220 168.5t-117 248t-4.5 297.5zM459 760v-2q-29 -156 17.5 -287.5t160.5 -209
t272 -77.5q160 0 302.5 82t233.5 212t118 278q16 74 9.5 145.5t-26.5 135.5t-60.5 118t-92.5 93t-123 61t-152 22q-121 0 -234 -46.5t-199 -124.5t-145.5 -182t-80.5 -218z" />
    <glyph glyph-name="P" unicode="P" horiz-adv-x="1187" 
d="M418 1516h432q171 0 258.5 -23.5t148.5 -79.5q67 -61 93 -162t6 -211q-20 -109 -83 -212t-145 -160q-90 -62 -185.5 -87.5t-248.5 -25.5h-213l-102 -555h-242zM621 1303l-101 -535h209q154 0 246 51q53 27 94.5 85t54.5 132t-7 131t-64 86q-42 29 -96 39.5t-136 10.5
h-200z" />
    <glyph glyph-name="Q" unicode="Q" horiz-adv-x="1787" 
d="M1810 172l-36 -199q-54 3 -115 9q-80 7 -144 28.5t-95.5 42t-67.5 51.5q-230 -133 -469 -133q-119 0 -222.5 30.5t-180 84t-135 127.5t-88 161t-39.5 183.5t11 196.5q29 157 115 301.5t209 252t284.5 172t331.5 64.5t308.5 -63.5t223 -169.5t118 -249t4.5 -298
q-15 -82 -44 -157.5t-56 -124.5t-67.5 -100.5t-61 -72.5t-52.5 -53q50 -39 110 -57.5t158 -26.5zM1130 1331h-2q-211 0 -386.5 -136t-239.5 -353q-20 -87 -17 -148q168 51 289 51q213 0 361 -106q19 -13 36.5 -27t30.5 -25t35.5 -33t36 -35.5l49.5 -49.5l59 -59
q163 141 201 354q23 123 -2 230t-87 180t-156.5 115t-207.5 42zM922 184h2q82 0 158 22.5t126 53.5q-12 16 -37 43t-45 47t-46 45l-25 25q-141 121 -342 121q-123 0 -230 -43q20 -73 60 -130t86 -90.5t100.5 -55.5t101 -30t91.5 -8z" />
    <glyph glyph-name="R" unicode="R" horiz-adv-x="1247" 
d="M137 0l281 1516h428q311 0 424 -89q83 -61 115.5 -170.5t9.5 -238.5q-31 -164 -140 -289q-69 -76 -145.5 -112.5t-177.5 -53.5l252 -563h-256l-289 684h53q102 0 181 12.5t135 53.5q121 92 149 247q15 77 -7 147t-75 109q-70 50 -248 50h-206l-242 -1303h-242z" />
    <glyph glyph-name="S" unicode="S" horiz-adv-x="1122" 
d="M154 449h239q-8 -65 3.5 -115.5t33.5 -79t53.5 -47.5t59.5 -25t55 -6q102 0 190 71t107 171q4 23 4.5 43t-4 37.5t-10.5 32.5t-18 28.5t-23.5 24t-30.5 22t-34.5 19.5t-40 18.5t-43 18t-46.5 18.5q-27 11 -41 16q-49 17 -81 30.5t-87.5 49t-86 75.5t-48.5 108t-4 149
q18 102 75 186.5t135 138t168 82.5t181 29q61 0 118 -13t110.5 -44.5t90.5 -78.5t54 -119.5t6 -162.5h-238q-1 31 -3.5 54t-13.5 55.5t-30 53t-55 35.5t-86 15q-95 0 -172.5 -59.5t-95.5 -153.5q-10 -42 -0.5 -74.5t28.5 -56.5t57.5 -46t86.5 -43t114 -47q4 -1 6.5 -2
t6 -2.5t6.5 -2.5q32 -15 57 -27.5t54 -29.5t51 -33.5t44 -37.5t37 -43t28 -50t18.5 -58t5 -66.5t-7.5 -76.5q-17 -93 -64 -175.5t-119 -146t-173.5 -100.5t-219.5 -37q-226 0 -335.5 129t-71.5 349z" />
    <glyph glyph-name="T" unicode="T" horiz-adv-x="970" 
d="M365 0l241 1303h-348l39 213h938l-39 -213h-348l-242 -1303h-241z" />
    <glyph glyph-name="U" unicode="U" horiz-adv-x="1343" 
d="M424 1516h242l-174 -947q-12 -60 -16 -93.5t0 -81.5t22 -89q24 -55 79.5 -88t131.5 -33q77 0 142.5 31.5t106.5 85.5q35 40 57.5 88.5t31.5 83t20 96.5l174 947h240l-174 -947q-30 -164 -86.5 -275t-165.5 -190q-169 -133 -385 -133q-96 0 -190 31t-152 100
q-60 63 -83.5 141.5t-19.5 149.5t25 176z" />
    <glyph glyph-name="V" unicode="V" horiz-adv-x="1427" 
d="M592 0l-287 1516h250l213 -1221l666 1221h249l-852 -1516h-239z" />
    <glyph glyph-name="W" unicode="W" horiz-adv-x="1923" 
d="M438 0l-129 1516h246l80 -1186l516 1186h182l82 -1188l514 1188h246l-698 -1516h-224l-79 1149l-506 -1149h-230z" />
    <glyph glyph-name="X" unicode="X" horiz-adv-x="1368" 
d="M20 0l672 791l-350 725h274l248 -547l447 547h272l-612 -730l377 -786h-275l-282 616l-502 -616h-269z" />
    <glyph glyph-name="Y" unicode="Y" horiz-adv-x="1239" 
d="M500 0l100 539l-295 977h262l195 -750l473 750h262l-655 -977l-101 -539h-241z" />
    <glyph glyph-name="Z" unicode="Z" horiz-adv-x="1021" 
d="M1225 1327l-856 -1114h667l-39 -213h-960l29 156l882 1147h-682l39 213h955z" />
    <glyph glyph-name="bracketleft" unicode="[" horiz-adv-x="923" 
d="M735 -231l-33 -181h-542l356 1928h543l-33 -179h-336l-291 -1568h336z" />
    <glyph glyph-name="backslash" unicode="\" horiz-adv-x="1144" 
d="M725 -205l-301 1721h238l303 -1721h-240z" />
    <glyph glyph-name="bracketright" unicode="]" horiz-adv-x="923" 
d="M70 -412l32 181h336l291 1568h-336l33 179h545l-357 -1928h-544z" />
    <glyph glyph-name="asciicircum" unicode="^" horiz-adv-x="1228" 
d="M293 768l493 748h218l215 -748h-234l-127 557l-334 -557h-231z" />
    <glyph glyph-name="underscore" unicode="_" horiz-adv-x="1024" 
d="M977 -256h-1024l18 102h1024z" />
    <glyph glyph-name="grave" unicode="`" horiz-adv-x="1136" 
d="M631 1638l442 -272l-88 -131l-453 250z" />
    <glyph glyph-name="a" unicode="a" horiz-adv-x="1415" 
d="M1481 1114l-207 -1114h-213l37 195q-78 -110 -200 -169t-257 -59q-88 0 -163 22t-129 61.5t-95 94.5t-61 120.5t-25.5 139.5t10.5 152q31 167 131.5 302.5t245.5 211.5t305 76q153 0 248.5 -69t122.5 -160l37 196h213zM391 555v-2q-6 -51 -4 -104t25.5 -104t59.5 -90.5
t97.5 -64t139.5 -24.5q123 0 224.5 60.5t162.5 160.5q49 72 69 166q19 90 -2 166q-23 102 -104 165.5t-209 63.5q-170 0 -299.5 -115.5t-159.5 -277.5z" />
    <glyph glyph-name="b" unicode="b" horiz-adv-x="1400" 
d="M139 0l281 1516h213l-74 -404l-33 -176q92 103 213 156t236 55q109 0 203 -40t159.5 -113t92.5 -185.5t2 -247.5q-33 -175 -135.5 -311.5t-246 -209.5t-302.5 -73q-139 0 -236 61.5t-133 164.5l-35 -193h-205zM1217 557l2 2q29 164 -61 276.5t-253 112.5
q-168 0 -297 -113.5t-159 -275.5q-20 -106 9.5 -195.5t107 -143.5t188.5 -54q92 0 174 33.5t139.5 89.5t96.5 125t53 143z" />
    <glyph glyph-name="c" unicode="c" horiz-adv-x="1304" 
d="M1090 391h219q-85 -185 -261.5 -304.5t-381.5 -119.5q-133 0 -237.5 48.5t-165.5 130.5t-83.5 188.5t-1.5 222.5q30 163 131.5 298.5t251 213.5t313.5 78q203 0 342 -117.5t154 -314.5h-219q-23 110 -106 171.5t-199 61.5q-155 3 -293 -108q-59 -50 -102 -124.5
t-60 -158.5q-30 -170 59 -280.5t250 -110.5q130 1 232.5 66.5t157.5 158.5z" />
    <glyph glyph-name="d" unicode="d" horiz-adv-x="1411" 
d="M1548 1516l-280 -1516h-205l37 195q-73 -99 -187 -163.5t-272 -64.5q-103 0 -188.5 30.5t-142.5 85t-94.5 129t-44.5 162.5t9 185q47 256 241 422t435 166q81 0 149 -21t111.5 -54t71 -68.5t39.5 -71.5l37 196l71 388h213zM393 559l-2 -2q-18 -104 11.5 -192
t109.5 -143.5t199 -55.5q164 0 301 117q135 116 159 280q30 166 -61 275q-90 110 -254 110q-173 0 -303.5 -114t-159.5 -275z" />
    <glyph glyph-name="e" unicode="e" horiz-adv-x="1298" 
d="M1319 489h-952q-11 -81 12 -147.5t70 -107t106.5 -62.5t124.5 -22q221 0 356 188h221q-116 -183 -276 -277q-158 -94 -336 -94q-132 0 -235.5 50.5t-162.5 133t-81 188t-2 216.5q29 158 130 293.5t252 217t316 81.5q242 0 381 -164q79 -99 98 -227.5t-22 -266.5zM401 655
h738q7 56 -11.5 111.5t-57.5 100.5t-102.5 72t-140.5 26q-155 0 -275 -94t-151 -216z" />
    <glyph glyph-name="f" unicode="f" horiz-adv-x="595" 
d="M162 0l176 948h-152l31 166h152l14 76q13 70 38.5 125.5t55.5 91.5t72.5 62.5t78.5 40t84.5 22t79.5 10t74 2.5l-30 -168q-20 -1 -27 -1t-29 -2t-32.5 -5.5t-31 -10t-32 -16t-28 -24.5t-27 -34t-20 -45t-15.5 -58l-12 -66h204l-30 -166h-205l-176 -948h-213z" />
    <glyph glyph-name="g" unicode="g" horiz-adv-x="1402" 
d="M1473 1114l-183 -985q-50 -265 -209 -414q-96 -92 -230.5 -147t-275.5 -55q-114 0 -205 31t-148.5 84.5t-90.5 118t-41 136.5h246q25 -75 100 -129q77 -59 180 -59q96 0 189 43.5t167 134t95 209.5l23 115q-73 -102 -188 -166t-257 -64q-164 0 -282 77t-166.5 211
t-18.5 298q32 171 133.5 307.5t246.5 211.5t306 75q135 0 233 -62.5t128 -158.5l35 188h213zM393 559l-2 -2q-19 -105 11.5 -193.5t109.5 -143t193 -54.5q165 0 294 113q126 110 160 272q13 64 3 136.5t-44 127.5q-79 131 -268 131q-105 0 -202 -48.5t-166 -137.5t-89 -201z
" />
    <glyph glyph-name="h" unicode="h" horiz-adv-x="1302" 
d="M139 0l281 1516h213l-72 -383l-31 -175q64 94 173.5 142.5t224.5 46.5q243 0 327 -156q72 -135 25 -383l-113 -608h-215l111 598q30 165 -16 250q-63 98 -216 98q-157 0 -256 -102q-82 -85 -106 -215l-117 -629h-213z" />
    <glyph glyph-name="i" unicode="i" horiz-adv-x="491" 
d="M379 1290l41 226h213l-41 -226h-213zM139 0l207 1114h213l-207 -1114h-213z" />
    <glyph glyph-name="j" unicode="j" horiz-adv-x="563" 
d="M426 1288l41 228h213l-41 -228h-213zM606 1114l-203 -1096q-10 -53 -20 -93t-27 -86.5t-38 -80.5t-53.5 -68t-72.5 -56.5t-95 -38t-122 -19.5q-20 -2 -61 -2l33 170q25 0 35 2q44 5 77.5 22t53.5 38.5t35.5 58.5t23 67.5t16.5 79.5l205 1102h213z" />
    <glyph glyph-name="k" unicode="k" horiz-adv-x="1095" 
d="M145 0l281 1516h215l-156 -842l519 440h258l-586 -489l393 -625h-248l-354 573l-107 -573h-215z" />
    <glyph glyph-name="l" unicode="l" horiz-adv-x="491" 
d="M139 0l281 1516h213l-281 -1516h-213z" />
    <glyph glyph-name="m" unicode="m" horiz-adv-x="1966" 
d="M139 0l207 1114h201l-29 -158q51 77 154.5 134t218.5 57q182 0 264 -119q16 -20 51 -108q50 65 101 110q140 117 317 117q188 0 279 -113q58 -73 67 -167.5t-22 -252.5l-115 -614h-213l113 606q30 172 -17 248q-47 92 -180 92q-71 0 -134 -28t-102 -78
q-40 -50 -59.5 -100t-32.5 -126l-114 -614h-215l114 614q28 144 -4 222q-47 107 -190 110q-72 1 -133.5 -29t-98.5 -79q-77 -85 -102 -228l-113 -610h-213z" />
    <glyph glyph-name="n" unicode="n" horiz-adv-x="1302" 
d="M139 0l207 1114h201l-33 -172q61 93 167.5 149.5t248.5 55.5q86 -1 152.5 -21.5t107.5 -57t67.5 -83t35.5 -103t7.5 -112.5t-12.5 -117l-121 -653h-215l113 604q30 161 -23 252t-208 90q-153 -1 -245.5 -88t-121.5 -237l-115 -621h-213z" />
    <glyph glyph-name="o" unicode="o" horiz-adv-x="1341" 
d="M178 557l2 2q20 112 80 217t149.5 188t213.5 133t260 50q92 0 170 -23t134 -63.5t98.5 -96.5t63 -121.5t27 -138t-9.5 -147.5q-21 -113 -81 -218t-149 -188t-212.5 -132.5t-259.5 -49.5q-92 0 -170.5 23t-134.5 63t-99 95.5t-63.5 121t-27.5 138t9 147.5zM391 557v-2
q-31 -165 58.5 -276t250.5 -111t291.5 111.5t161.5 277.5q32 166 -57 277.5t-250 111.5t-292 -111.5t-163 -277.5z" />
    <glyph glyph-name="p" unicode="p" horiz-adv-x="1409" 
d="M63 -406l283 1520h203l-37 -194q86 105 206 166t263 61q80 0 148 -18.5t118 -51.5t89 -78t62 -97.5t35 -111.5t12 -119t-11 -120q-22 -117 -83 -224t-148.5 -186.5t-202 -126.5t-236.5 -47q-82 0 -150.5 20.5t-113 54.5t-72 69.5t-41.5 72.5l-35 -184l-76 -406h-213z
M1219 557l2 2q10 46 6 92.5t-16 89.5t-39 81t-63.5 66t-89.5 44t-116 16q-166 0 -299 -114q-130 -114 -160 -279q-29 -162 60 -276q92 -113 256 -113q167 0 298 113.5t161 277.5z" />
    <glyph glyph-name="q" unicode="q" horiz-adv-x="1406" 
d="M1475 1114l-283 -1520h-213l76 406l35 188q-27 -38 -67.5 -74t-97.5 -70.5t-134 -55.5t-162 -21q-98 0 -181 30t-139.5 83t-94 126t-45.5 158.5t7 180.5q50 261 242.5 431.5t441.5 170.5q65 0 121.5 -13.5t96.5 -35t72 -51.5t52 -60t33 -63l35 190h205zM391 553v-2
q-19 -101 13 -188.5t112 -142t193 -54.5q163 0 295 113q133 111 163 276q37 161 -57 279q-90 114 -256 114q-92 0 -174.5 -34.5t-140 -91t-96 -126t-52.5 -143.5z" />
    <glyph glyph-name="r" unicode="r" horiz-adv-x="688" 
d="M139 0l207 1114h201l-31 -164q130 194 369 197l-39 -213h-15q-303 0 -368 -332l-111 -602h-213z" />
    <glyph glyph-name="s" unicode="s" horiz-adv-x="954" 
d="M995 823h-211q11 68 -23 109.5t-112 40.5q-75 0 -125.5 -42.5t-60.5 -101.5q-8 -62 35.5 -98t136.5 -63q137 -40 192 -72q129 -77 112 -239q-1 -12 -3 -25q-18 -106 -87 -190t-168.5 -129.5t-209.5 -45.5q-55 0 -107 12t-99.5 40t-80.5 68t-48.5 101t-4.5 134h211
q-6 -48 7 -84.5t39 -57t56 -30t62 -9.5q77 0 138.5 48t74.5 118q7 41 -3 70t-45 54t-76.5 43t-121.5 46q-125 40 -186 106t-41 183q28 153 154 245.5t284 92.5q49 0 94.5 -9.5t89.5 -33.5t74.5 -59.5t45.5 -93t7 -128.5z" />
    <glyph glyph-name="t" unicode="t" horiz-adv-x="667" 
d="M219 0l176 948h-200l30 166h201l74 402h213l-74 -402h215l-31 -166h-215l-176 -948h-213z" />
    <glyph glyph-name="u" unicode="u" horiz-adv-x="1304" 
d="M1372 1114l-207 -1114h-200l32 172q-61 -93 -167.5 -149.5t-247.5 -55.5q-75 0 -135 16t-100.5 42.5t-69.5 64.5t-44 80.5t-20.5 92.5t-2.5 98t13 100l121 653h213l-113 -604q-63 -344 234 -344q151 1 244 89t120 237l117 622h213z" />
    <glyph glyph-name="v" unicode="v" horiz-adv-x="1110" 
d="M1294 1114l-632 -1114h-213l-220 1114h224l151 -848l467 848h223z" />
    <glyph glyph-name="w" unicode="w" horiz-adv-x="1656" 
d="M389 0l-166 1114h223l107 -842l381 777h178l98 -777l414 842h221l-577 -1114h-203l-94 780l-379 -780h-203z" />
    <glyph glyph-name="x" unicode="x" horiz-adv-x="1085" 
d="M10 0l508 580l-274 534h258l176 -383l317 383h254l-473 -534l297 -580h-260l-195 414l-348 -414h-260z" />
    <glyph glyph-name="y" unicode="y" horiz-adv-x="1089" 
d="M176 -406l266 439l-225 1081h229l156 -815l463 815h229l-891 -1520h-227z" />
    <glyph glyph-name="z" unicode="z" horiz-adv-x="874" 
d="M29 0l28 152l713 796h-549l31 166h784l-30 -168l-693 -780h564l-31 -166h-817z" />
    <glyph glyph-name="braceleft" unicode="{" horiz-adv-x="1015" 
d="M1145 1528l-31 -166h-113q-76 0 -106 -40.5t-49 -139.5l-76 -406q-11 -59 -42.5 -111.5t-74.5 -89.5t-73.5 -58.5t-61.5 -37.5q72 -20 120 -91t28 -181l-76 -408q-22 -92 -4.5 -136t94.5 -44h113l-33 -168h-207q-113 0 -167.5 69t-29.5 204l76 407q32 175 -139 240
l41 221q67 9 138 75t91 177l78 416q25 134 104 201t193 67h207z" />
    <glyph glyph-name="bar" unicode="|" horiz-adv-x="903" 
d="M502 1782h184v-2376h-184v2376z" />
    <glyph glyph-name="braceright" unicode="}" horiz-adv-x="1015" 
d="M406 1362l30 166h207q114 0 169 -67t30 -201l-78 -416q-9 -62 -0.5 -107.5t32 -76.5t51 -47.5t56.5 -20.5l-41 -221q-197 -65 -229 -240l-76 -407q-25 -135 -105.5 -204t-193.5 -69h-207l33 168h113q77 0 106.5 39.5t48.5 140.5l76 408q10 56 42.5 106t74.5 84.5t73.5 54
t57.5 31.5q-76 29 -120.5 103t-23.5 190l76 406q11 59 11.5 99t-23.5 60.5t-78 20.5h-112z" />
    <glyph glyph-name="asciitilde" unicode="~" horiz-adv-x="1228" 
d="M1153 692l23 -196q-66 -76 -130.5 -120t-136.5 -44q-84 0 -207 69q-126 74 -219 74q-111 3 -217 -135l-22 192q126 173 286 168q80 0 222 -69q9 -4 41 -20t44.5 -22t36.5 -15.5t41.5 -13t34.5 -3.5q54 0 101 36t102 99z" />
    <glyph glyph-name="uni00A0" unicode="&#xa0;" horiz-adv-x="604" 
 />
    <glyph glyph-name="exclamdown" unicode="&#xa1;" horiz-adv-x="614" 
d="M354 848l49 266h222l-50 -266h-221zM123 -401l201 1087h221l-201 -1087h-221z" />
    <glyph glyph-name="cent" unicode="&#xa2;" 
d="M721 72h-182l41 217q-68 15 -123 45t-89 68t-58.5 84t-32.5 92.5t-10.5 93.5t7.5 88q13 72 48.5 144t93 140.5t146 121t194.5 73.5l39 205h176l-39 -203q133 -32 215 -122.5t96 -213.5h-225q-27 71 -83.5 101t-121.5 30q-118 0 -211 -79t-115 -191q-21 -113 39.5 -195
t184.5 -82q148 0 247 121h232q-71 -128 -188 -213t-240 -108z" />
    <glyph glyph-name="sterling" unicode="&#xa3;" 
d="M991 831l-33 -174h-311q112 -117 86 -256q-14 -94 -125 -208h131q73 0 120 11.5t87 39.5q98 75 119 182q5 32 2 88h211q4 -59 -6 -119q-13 -72 -56 -143t-100 -123q-79 -66 -165.5 -97.5t-219.5 -31.5h-649l35 193h192q63 13 115.5 58t69.5 134q14 79 -15 143.5
t-90 128.5h-248l33 174h133q-48 95 -26 220q24 127 107 239t216.5 183t286.5 71q197 0 318 -120t108 -326h-225q-5 97 -64 165t-174 68q-123 0 -216 -82t-118 -205q-20 -117 45 -213h426z" />
    <glyph glyph-name="currency" unicode="&#xa4;" 
d="M1085 139l-133 164q-151 -96 -309 -96q-156 0 -276 96l-193 -162l-90 109l199 168q-72 125 -45 280q30 161 151 289l-139 168l133 113l137 -170q148 94 305 94q158 0 267 -92l200 166l90 -111l-196 -166q70 -133 41 -291q-26 -150 -146 -280l136 -166zM440 700v-2
q-22 -118 49.5 -204t190.5 -86t220.5 85.5t123.5 206.5q23 121 -46.5 207t-189.5 86q-119 0 -222 -86t-126 -207z" />
    <glyph glyph-name="yen" unicode="&#xa5;" 
d="M1321 967l-33 -181h-381l-55 -79l-21 -109h422l-32 -180h-422l-78 -418h-238l78 418h-418l33 180h418l20 107l-28 81h-373l33 181h280l-215 549h256l209 -590l432 590h252l-422 -549h283z" />
    <glyph glyph-name="brokenbar" unicode="&#xa6;" horiz-adv-x="901" 
d="M502 1604h182v-832h-182v832zM502 416h182v-830h-182v830z" />
    <glyph glyph-name="section" unicode="&#xa7;" horiz-adv-x="1284" 
d="M1313 1157h-211q1 58 -15.5 97.5t-48 59t-65 27t-76.5 7.5q-90 0 -162 -47.5t-90 -137.5q-6 -39 2.5 -69t33 -52.5t42 -33.5t49.5 -27l313 -158q15 -8 24 -12.5t27 -15.5t29.5 -20t28.5 -23t28 -28.5t24 -33t20 -39.5t12 -45t4.5 -52.5t-6.5 -59.5q-36 -183 -244 -322
q99 -113 70 -274q-16 -81 -60.5 -154t-112 -130t-163.5 -90.5t-205 -33.5q-67 0 -130.5 13.5t-125.5 48.5t-105 86.5t-62 135t-3 187.5h211q-10 -74 5.5 -128.5t52 -85.5t83.5 -45.5t107 -14.5q123 0 200 59t99 150q9 67 -31 114.5t-129 91.5l-338 172q-19 9 -27.5 13.5
t-29.5 17.5t-32.5 22.5t-30 27.5t-28 35t-21 42t-15 51.5t-3.5 61.5t7 73q5 32 19 66.5t41.5 79t79 91t120.5 85.5q-58 102 -37 225q23 122 104 210.5t184.5 128.5t217.5 40q198 0 296.5 -110t72.5 -277zM1077 461v2q11 71 -26.5 112.5t-112.5 77.5l-356 183
q-71 -32 -112.5 -83t-51.5 -106q-23 -118 96 -182l397 -199q55 24 103.5 77t62.5 118z" />
    <glyph glyph-name="dieresis" unicode="&#xa8;" horiz-adv-x="1136" 
d="M752 1563l-52 -277h-206l51 277h207zM1167 1563l-51 -277h-207l52 277h206z" />
    <glyph glyph-name="copyright" unicode="&#xa9;" horiz-adv-x="1638" 
d="M1110 1542h2q107 0 203.5 -28.5t171.5 -80t133.5 -123t90.5 -159t42.5 -187t-10.5 -206.5q-40 -215 -178.5 -396t-337 -285t-410.5 -104q-161 0 -295 61.5t-219.5 165.5t-120 250t-4.5 308q29 158 115.5 302t210 250t282 169t324.5 63zM1087 1432h-2q-186 0 -356 -91.5
t-284 -246t-148 -336.5q-19 -114 -7 -215t59.5 -185t117 -145t165.5 -95t206 -34q135 0 266.5 52.5t236.5 142t180.5 214.5t102.5 265q25 136 -2.5 260t-98 215t-184 145t-252.5 54zM1391 907h-144q-2 54 -22 93.5t-52 59.5t-66 29t-73 9q-137 0 -232.5 -97t-121.5 -241
q-30 -156 37 -245t194 -89q19 0 40 2.5t60.5 16.5t73.5 38.5t70 74t59 116.5h146q-45 -173 -178 -274t-301 -101q-189 0 -289 124t-60 337q36 199 180.5 332t346.5 133q163 0 254 -94t78 -224z" />
    <glyph glyph-name="ordfeminine" unicode="&#xaa;" horiz-adv-x="837" 
d="M1024 1524l-117 -629h-137l21 111q-91 -129 -250 -129q-140 0 -213.5 97.5t-46.5 235.5q27 146 139.5 240t247.5 94q150 0 198 -131l21 111h137zM416 1206v-2q-5 -32 1.5 -65.5t25.5 -63t56 -48.5t87 -19q65 0 118.5 30.5t86.5 79.5q28 41 38 92q7 55 -2 86
q-14 53 -58 85t-110 32q-87 0 -156.5 -59t-86.5 -148z" />
    <glyph glyph-name="guillemotleft" unicode="&#xab;" horiz-adv-x="798" 
d="M176 573l287 385h164l-287 -385l143 -380h-164zM483 573l287 385h164l-287 -385l144 -380h-164z" />
    <glyph glyph-name="logicalnot" unicode="&#xac;" horiz-adv-x="1228" 
d="M252 834h1032l-106 -584h-207l69 379h-825z" />
    <glyph glyph-name="uni00AD" unicode="&#xad;" horiz-adv-x="561" 
d="M127 686h561l-39 -211h-561z" />
    <glyph glyph-name="registered" unicode="&#xae;" horiz-adv-x="1638" 
d="M1110 1542h2q107 0 203.5 -28.5t171.5 -80t133.5 -123t90.5 -159t42.5 -187t-10.5 -206.5q-40 -215 -178.5 -396t-337 -285t-410.5 -104q-161 0 -295 61.5t-219.5 165.5t-120 250t-4.5 308q29 157 115.5 301t210 250.5t282.5 169.5t324 63zM1087 1432h-2
q-185 0 -355 -91.5t-284.5 -246t-148.5 -336.5q-26 -138 3 -263t101.5 -215t186 -143t250.5 -53q135 0 266.5 52.5t236.5 142t180.5 214.5t102.5 265q25 135 -2.5 259t-97.5 215t-184 145.5t-253 54.5zM707 1204h372q40 0 77.5 -5.5t79.5 -22t70.5 -42.5t42.5 -71.5
t3 -104.5q-30 -153 -199 -215q65 -23 89 -70t15 -134q-20 -170 -19 -193q1 -14 5 -31h-141q-2 4 -3 10.5t-1.5 16.5t-0.5 18.5t1 22.5t1.5 24t2.5 27.5t3 27.5t3.5 30t3.5 30q6 32 2 61.5t-17.5 52t-54.5 36.5t-108 14h-178l-68 -371h-145zM1036 1098h-205l-57 -310h187
q94 3 142 25q82 39 101 137q8 41 -2.5 71t-28 44t-47.5 22.5t-48 9.5t-42 1z" />
    <glyph glyph-name="macron" unicode="&#xaf;" horiz-adv-x="1136" 
d="M1212 1505l-30 -170h-733l30 170h733z" />
    <glyph glyph-name="degree" unicode="&#xb0;" horiz-adv-x="819" 
d="M918 1163v-2q-23 -122 -123.5 -206.5t-223.5 -84.5t-192.5 85t-46.5 208t124 208t224 85t192 -85t46 -208zM453 1163v-2q-12 -71 28 -122.5t111 -51.5q72 0 132.5 52t72.5 124q14 71 -27 122.5t-113 51.5q-71 0 -130.5 -51.5t-73.5 -122.5z" />
    <glyph glyph-name="plusminus" unicode="&#xb1;" horiz-adv-x="1228" 
d="M653 758l62 336h205l-62 -336h414l-39 -207h-414l-61 -328h-205l61 328h-413l39 207h413zM82 -92l37 207h1032l-37 -207h-1032z" />
    <glyph glyph-name="twosuperior" unicode="&#xb2;" horiz-adv-x="782" 
d="M846 750l-27 -144h-635l25 131q219 172 379 303q78 62 114.5 107.5t45.5 95.5q13 64 -12.5 105t-94.5 41q-71 0 -118 -54t-62 -135h-164q20 126 98 209q110 125 281 125q148 0 216.5 -72t43.5 -202q-15 -77 -57 -137.5t-123 -127.5q-34 -28 -94.5 -77.5t-111 -90.5
t-93.5 -77h389z" />
    <glyph glyph-name="threesuperior" unicode="&#xb3;" horiz-adv-x="782" 
d="M219 885h172q-9 -72 27 -112t102 -40q72 0 122.5 42.5t62.5 109.5q7 33 -3 65t-44.5 56t-90.5 24h-88l25 125h53q67 0 115.5 37t56.5 84q8 45 -13.5 78.5t-72.5 34.5q-57 0 -92 -33.5t-47 -81.5h-168q16 73 57 127t92.5 81t98.5 39.5t90 12.5q117 0 181 -69t46 -167
q-11 -56 -51.5 -107t-101.5 -81q73 -30 108.5 -93t20.5 -140q-23 -122 -134.5 -205.5t-250.5 -83.5q-81 0 -150 32.5t-100 90.5q-38 68 -23 174z" />
    <glyph glyph-name="acute" unicode="&#xb4;" horiz-adv-x="1136" 
d="M571 1374l541 275l43 -156l-543 -250z" />
    <glyph glyph-name="mu" unicode="&#xb5;" horiz-adv-x="1230" 
d="M61 -381l277 1495h213l-109 -586q-32 -177 9 -260q55 -102 192 -102q139 0 229 110q91 104 127 297l101 541h213l-207 -1114h-205l35 186q-129 -209 -326 -209q-183 0 -243 144l-27 -139l-66 -363h-213z" />
    <glyph glyph-name="paragraph" unicode="&#xb6;" horiz-adv-x="1306" 
d="M408 -231l176 948q-199 0 -304.5 100t-70.5 293q18 98 65.5 173t106.5 118t134 70t139 36t132 9h631l-28 -160h-113l-295 -1587h-172l295 1585h-230l-294 -1585h-172z" />
    <glyph glyph-name="periodcentered" unicode="&#xb7;" horiz-adv-x="608" 
d="M539 653l-50 -266h-223l49 266h224z" />
    <glyph glyph-name="cedilla" unicode="&#xb8;" horiz-adv-x="1136" 
d="M618 0l-75 -113q14 7 35 7q67 0 106 -46.5t25 -121.5q-13 -74 -74.5 -130.5t-153.5 -56.5q-14 0 -29.5 2t-41 11t-44.5 25t-32.5 48.5t-11.5 75.5h110q3 -32 22 -47.5t46 -15.5q35 0 63 24t35 64q7 35 -12.5 57t-53.5 22q-43 0 -73 -38l-86 43l125 190h120z" />
    <glyph glyph-name="onesuperior" unicode="&#xb9;" horiz-adv-x="782" 
d="M766 1516l-168 -910h-164l141 766h-176l27 144h340z" />
    <glyph glyph-name="ordmasculine" unicode="&#xba;" horiz-adv-x="837" 
d="M305 1206v2q17 87 70.5 162.5t140.5 124t189 49.5q78 0 138.5 -29t92 -76t45.5 -107t0 -122q-27 -137 -141 -235t-260 -98q-99 0 -168.5 48t-96 122.5t-10.5 158.5zM442 1208v-2q-15 -82 32.5 -140t129.5 -58q80 0 150.5 57.5t87.5 144.5q15 85 -31 144t-129 59
q-82 0 -152.5 -57.5t-87.5 -147.5z" />
    <glyph glyph-name="guillemotright" unicode="&#xbb;" horiz-adv-x="798" 
d="M692 956l144 -383l-287 -380h-164l289 380l-146 383h164zM385 956l143 -383l-286 -380h-164l287 380l-144 383h164z" />
    <glyph glyph-name="onequarter" unicode="&#xbc;" horiz-adv-x="1658" 
d="M1458 1516l-934 -1516h-180l932 1516h182zM1434 698l-340 -403h266zM715 1516l-168 -910h-164l141 766h-176l27 144h340zM1636 909l-112 -614h96l-25 -129h-96l-31 -166h-165l30 166h-444l20 115l564 628h163z" />
    <glyph glyph-name="onehalf" unicode="&#xbd;" horiz-adv-x="1728" 
d="M715 1516l-168 -910h-164l141 766h-176l27 144h340zM1458 1516l-934 -1516h-180l932 1516h182zM1661 143l-27 -143h-635l25 131q219 172 379 303q79 62 116 107.5t46 95.5q11 64 -14.5 104.5t-94.5 40.5q-71 0 -118.5 -54t-61.5 -134h-164q21 125 90 201q113 133 289 133
q148 0 216.5 -72.5t43.5 -202.5q-15 -77 -57 -137t-123 -127q-250 -205 -299 -246h389z" />
    <glyph glyph-name="threequarters" unicode="&#xbe;" horiz-adv-x="1869" 
d="M1657 705l-348 -410h272zM1686 1516l-934 -1516h-181l932 1516h183zM1858 909l-113 -614h96l-24 -129h-97l-30 -166h-166l30 166h-444l20 115l564 628h164zM248 885h170q-9 -72 28 -112t103 -40q72 0 122 42.5t62 109.5q11 54 -22.5 99.5t-116.5 45.5h-86l24 125h52
q68 0 116 37t56 84q8 45 -13.5 78.5t-70.5 34.5q-59 0 -94.5 -33.5t-45.5 -81.5h-167q15 73 55.5 127t92.5 81t99 39.5t90 12.5q115 0 179.5 -69t46.5 -167q-11 -57 -51.5 -107.5t-102.5 -80.5q74 -29 109 -92t20 -141q-23 -123 -134 -206t-249 -83q-83 0 -152 33t-100 94
q-35 67 -20 170z" />
    <glyph glyph-name="questiondown" unicode="&#xbf;" horiz-adv-x="1161" 
d="M662 848l49 266h223l-49 -266h-223zM631 694h225q-25 -110 -84 -198.5t-190 -194.5q-110 -93 -159 -149t-65 -127q-18 -100 33 -167t156 -67q97 0 175.5 59t111.5 162q4 10 14 51h233l-8 -45q-36 -140 -129 -244t-209 -154t-239 -50q-135 0 -231.5 61.5t-135.5 159.5
t-18 211q10 51 34 100.5t49.5 85t71 79.5t73.5 67t81 65q61 49 102 91.5t62 80t30.5 63t16.5 60.5z" />
    <glyph glyph-name="Agrave" unicode="&#xc0;" horiz-adv-x="1486" 
d="M483 358l-204 -358h-263l904 1516h219l331 -1516h-262l-78 358h-647zM1102 553l-133 682l-383 -682h516zM866 1976l441 -272l-90 -131l-451 250z" />
    <glyph glyph-name="Aacute" unicode="&#xc1;" horiz-adv-x="1486" 
d="M483 358l-204 -358h-263l904 1516h219l331 -1516h-262l-78 358h-647zM1102 553l-133 682l-383 -682h516zM815 1714l541 273l43 -156l-543 -250z" />
    <glyph glyph-name="Acircumflex" unicode="&#xc2;" horiz-adv-x="1486" 
d="M483 358l-204 -358h-263l904 1516h219l331 -1516h-262l-78 358h-647zM1102 553l-133 682l-383 -682h516zM1176 1915l292 -295h-221l-176 152l-227 -152h-223l405 295h150z" />
    <glyph glyph-name="Atilde" unicode="&#xc3;" horiz-adv-x="1486" 
d="M483 358l-204 -358h-263l904 1516h219l331 -1516h-262l-78 358h-647zM1102 553l-133 682l-383 -682h516zM1411 1884l53 -141q-112 -80 -231 -80q-18 0 -42.5 3.5t-39.5 7t-49.5 12t-42.5 10.5q-92 30 -156 30q-88 0 -166 -55l-53 146q45 33 106.5 54t118.5 21
q65 0 174 -30q88 -31 160 -31q97 0 168 53z" />
    <glyph glyph-name="Adieresis" unicode="&#xc4;" horiz-adv-x="1486" 
d="M483 358l-204 -358h-263l904 1516h219l331 -1516h-262l-78 358h-647zM1102 553l-133 682l-383 -682h516zM991 1901l-51 -277h-207l51 277h207zM1407 1901l-51 -277h-207l51 277h207z" />
    <glyph glyph-name="Aring" unicode="&#xc5;" horiz-adv-x="1486" 
d="M483 358l-204 -358h-263l904 1516h219l331 -1516h-262l-78 358h-647zM1102 553l-133 682l-383 -682h516zM1116 2013h2q93 0 147.5 -66t37.5 -159q-17 -92 -97 -158.5t-174 -66.5q-93 0 -146 66t-36 159q17 94 94.5 159.5t171.5 65.5zM1096 1898h-2q-44 0 -81.5 -32.5
t-45.5 -75.5q-8 -44 18 -75.5t70 -31.5q45 0 83.5 31.5t45.5 75.5q8 45 -17.5 76.5t-70.5 31.5z" />
    <glyph glyph-name="AE" unicode="&#xc6;" horiz-adv-x="1968" 
d="M-18 0l1331 1516h811l-39 -213h-547l-80 -431h539l-39 -210h-539l-84 -449h547l-39 -213h-782l72 383h-531l-332 -383h-288zM743 571h424l115 625z" />
    <glyph glyph-name="Ccedilla" unicode="&#xc7;" horiz-adv-x="1660" 
d="M883 -27l-60 -86q18 7 37 7q65 0 106 -46.5t27 -121.5q-13 -74 -75 -130.5t-154 -56.5q-14 0 -29.5 2t-41.5 11t-45 25t-32.5 48.5t-11.5 75.5h111q8 -63 67 -63q36 0 64 24t37 64q6 36 -14 57.5t-54 21.5q-44 0 -74 -38l-86 43l113 170q-194 23 -332.5 133t-195 279.5
t-19.5 367.5q28 155 113 298t207 250.5t283.5 171.5t332.5 64q117 -1 218 -33t170.5 -82.5t122 -117t81 -132.5t39.5 -132h-256q-10 33 -29.5 67.5t-55 74t-80 70t-111 51t-142.5 21.5q-118 0 -229 -46t-196 -124t-145 -182.5t-81 -218.5q-29 -156 16.5 -288t157.5 -210
t268 -78q83 0 162.5 24.5t133.5 56t105.5 76t74 69.5t42.5 51h254q-110 -207 -327 -344.5t-467 -143.5z" />
    <glyph glyph-name="Egrave" unicode="&#xc8;" horiz-adv-x="1099" 
d="M145 0l281 1516h848l-39 -213h-606l-80 -431h598l-39 -210h-598l-84 -449h606l-39 -213h-848zM680 2003l442 -270l-88 -131l-452 247z" />
    <glyph glyph-name="Eacute" unicode="&#xc9;" horiz-adv-x="1099" 
d="M145 0l281 1516h848l-39 -213h-606l-80 -431h598l-39 -210h-598l-84 -449h606l-39 -213h-848zM623 1741l538 272l43 -153l-540 -250z" />
    <glyph glyph-name="Ecircumflex" unicode="&#xca;" horiz-adv-x="1099" 
d="M145 0l281 1516h848l-39 -213h-606l-80 -431h598l-39 -210h-598l-84 -449h606l-39 -213h-848zM987 1942l293 -295h-223l-172 151l-232 -151h-223l410 295h147z" />
    <glyph glyph-name="Edieresis" unicode="&#xcb;" horiz-adv-x="1099" 
d="M145 0l281 1516h848l-39 -213h-606l-80 -431h598l-39 -210h-598l-84 -449h606l-39 -213h-848zM803 1929l-53 -278h-207l53 278h207zM1219 1929l-54 -278h-207l54 278h207z" />
    <glyph glyph-name="Igrave" unicode="&#xcc;" horiz-adv-x="534" 
d="M145 0l281 1516h242l-281 -1516h-242zM352 1999l439 -273l-89 -131l-450 250z" />
    <glyph glyph-name="Iacute" unicode="&#xcd;" horiz-adv-x="534" 
d="M145 0l281 1516h242l-281 -1516h-242zM385 1737l541 272l43 -156l-543 -249z" />
    <glyph glyph-name="Icircumflex" unicode="&#xce;" horiz-adv-x="534" 
d="M145 0l281 1516h242l-281 -1516h-242zM702 1933l293 -295h-223l-172 152l-231 -152h-224l410 295h147z" />
    <glyph glyph-name="Idieresis" unicode="&#xcf;" horiz-adv-x="534" 
d="M145 0l281 1516h242l-281 -1516h-242zM518 1923l-51 -276h-207l51 276h207zM934 1923l-51 -276h-207l51 276h207z" />
    <glyph glyph-name="Eth" unicode="&#xd0;" horiz-adv-x="1482" 
d="M307 877l119 639h475q87 0 158 -9t151.5 -33t147.5 -75.5t115 -128.5q129 -200 71 -510q-31 -167 -105.5 -305.5t-186 -240t-265 -158t-334.5 -56.5h-508l123 664h-145l39 213h145zM629 1303l-80 -426h352l-39 -213h-352l-84 -451h256q131 0 239 40.5t184.5 113.5
t126 171t71.5 218q47 234 -52 387q-106 160 -364 160h-258z" />
    <glyph glyph-name="Ntilde" unicode="&#xd1;" horiz-adv-x="1536" 
d="M653 1516l574 -1154l209 1154h233l-280 -1516h-222l-577 1155l-211 -1155h-234l281 1516h227zM1432 1880l55 -143q-110 -78 -230 -78q-56 0 -174 33q-92 30 -155 30q-89 0 -166 -57l-55 147q47 33 108.5 54.5t118.5 21.5q67 0 172 -33q89 -28 160 -28q101 0 166 53z" />
    <glyph glyph-name="Ograve" unicode="&#xd2;" horiz-adv-x="1742" 
d="M217 748v2q32 174 124 324.5t219.5 252.5t282.5 159.5t314 57.5q167 0 303.5 -62t221.5 -167.5t119.5 -250.5t4.5 -306q-41 -216 -178 -396t-340 -285.5t-426 -105.5q-167 0 -303.5 63t-220 168.5t-117 248t-4.5 297.5zM459 760v-2q-29 -156 17.5 -287.5t160.5 -209
t272 -77.5q160 0 302.5 82t233.5 212t118 278q16 74 9.5 145.5t-26.5 135.5t-60.5 118t-92.5 93t-123 61t-152 22q-121 0 -234 -46.5t-199 -124.5t-145.5 -182t-80.5 -218zM1001 2003l443 -270l-88 -131l-453 247z" />
    <glyph glyph-name="Oacute" unicode="&#xd3;" horiz-adv-x="1742" 
d="M217 748v2q32 174 124 324.5t219.5 252.5t282.5 159.5t314 57.5q167 0 303.5 -62t221.5 -167.5t119.5 -250.5t4.5 -306q-41 -216 -178 -396t-340 -285.5t-426 -105.5q-167 0 -303.5 63t-220 168.5t-117 248t-4.5 297.5zM459 760v-2q-29 -156 17.5 -287.5t160.5 -209
t272 -77.5q160 0 302.5 82t233.5 212t118 278q16 74 9.5 145.5t-26.5 135.5t-60.5 118t-92.5 93t-123 61t-152 22q-121 0 -234 -46.5t-199 -124.5t-145.5 -182t-80.5 -218zM944 1741l539 272l43 -153l-541 -250z" />
    <glyph glyph-name="Ocircumflex" unicode="&#xd4;" horiz-adv-x="1742" 
d="M217 748v2q32 174 124 324.5t219.5 252.5t282.5 159.5t314 57.5q167 0 303.5 -62t221.5 -167.5t119.5 -250.5t4.5 -306q-41 -216 -178 -396t-340 -285.5t-426 -105.5q-167 0 -303.5 63t-220 168.5t-117 248t-4.5 297.5zM459 760v-2q-29 -156 17.5 -287.5t160.5 -209
t272 -77.5q160 0 302.5 82t233.5 212t118 278q16 74 9.5 145.5t-26.5 135.5t-60.5 118t-92.5 93t-123 61t-152 22q-121 0 -234 -46.5t-199 -124.5t-145.5 -182t-80.5 -218zM1307 1937l295 -295h-224l-174 152l-229 -152h-223l407 295h148z" />
    <glyph glyph-name="Otilde" unicode="&#xd5;" horiz-adv-x="1742" 
d="M217 748v2q32 174 124 324.5t219.5 252.5t282.5 159.5t314 57.5q167 0 303.5 -62t221.5 -167.5t119.5 -250.5t4.5 -306q-41 -216 -178 -396t-340 -285.5t-426 -105.5q-167 0 -303.5 63t-220 168.5t-117 248t-4.5 297.5zM459 760v-2q-29 -156 17.5 -287.5t160.5 -209
t272 -77.5q160 0 302.5 82t233.5 212t118 278q16 74 9.5 145.5t-26.5 135.5t-60.5 118t-92.5 93t-123 61t-152 22q-121 0 -234 -46.5t-199 -124.5t-145.5 -182t-80.5 -218zM1536 1880l53 -143q-107 -78 -229 -78q-52 0 -174 33q-92 30 -156 30q-86 0 -166 -57l-53 147
q47 33 108 54.5t117 21.5q65 0 174 -33q89 -28 158 -28q100 0 168 53z" />
    <glyph glyph-name="Odieresis" unicode="&#xd6;" horiz-adv-x="1742" 
d="M217 748v2q32 174 124 324.5t219.5 252.5t282.5 159.5t314 57.5q167 0 303.5 -62t221.5 -167.5t119.5 -250.5t4.5 -306q-41 -216 -178 -396t-340 -285.5t-426 -105.5q-167 0 -303.5 63t-220 168.5t-117 248t-4.5 297.5zM459 760v-2q-29 -156 17.5 -287.5t160.5 -209
t272 -77.5q160 0 302.5 82t233.5 212t118 278q16 74 9.5 145.5t-26.5 135.5t-60.5 118t-92.5 93t-123 61t-152 22q-121 0 -234 -46.5t-199 -124.5t-145.5 -182t-80.5 -218zM1124 1929l-53 -278h-207l54 278h206zM1540 1929l-53 -278h-207l53 278h207z" />
    <glyph glyph-name="multiply" unicode="&#xd7;" horiz-adv-x="1228" 
d="M256 0l-121 147l426 359l-293 354l174 148l291 -357l426 357l121 -148l-424 -354l289 -359l-174 -147l-291 358z" />
    <glyph glyph-name="Oslash" unicode="&#xd8;" horiz-adv-x="1742" 
d="M1530 1444l127 139h239l-233 -252q40 -43 71 -96t56 -128t28.5 -159.5t-12.5 -189.5q-41 -216 -178 -396t-340 -285.5t-426 -105.5q-208 0 -362 97l-127 -136h-240l229 248q-90 93 -134 240.5t-9 337.5q30 165 119 311.5t214 250.5t283.5 164t323.5 60q210 0 371 -100z
M543 371l817 893q-90 67 -242 67q-122 0 -235.5 -47t-199 -126t-144.5 -182t-80 -214q-21 -116 2 -219t82 -172zM1485 1143l-817 -893q93 -66 239 -66q122 0 236 48.5t198.5 128.5t143 183t78.5 212q44 221 -78 387z" />
    <glyph glyph-name="Ugrave" unicode="&#xd9;" horiz-adv-x="1343" 
d="M424 1516h242l-174 -947q-12 -60 -16 -93.5t0 -81.5t22 -89q24 -55 79.5 -88t131.5 -33q77 0 142.5 31.5t106.5 85.5q35 40 57.5 88.5t31.5 83t20 96.5l174 947h240l-174 -947q-30 -164 -86.5 -275t-165.5 -190q-169 -133 -385 -133q-96 0 -190 31t-152 100
q-60 63 -83.5 141.5t-19.5 149.5t25 176zM733 1989l441 -271l-87 -131l-452 248z" />
    <glyph glyph-name="Uacute" unicode="&#xda;" horiz-adv-x="1343" 
d="M424 1516h242l-174 -947q-12 -60 -16 -93.5t0 -81.5t22 -89q24 -55 79.5 -88t131.5 -33q77 0 142.5 31.5t106.5 85.5q35 40 57.5 88.5t31.5 83t20 96.5l174 947h240l-174 -947q-30 -164 -86.5 -275t-165.5 -190q-169 -133 -385 -133q-96 0 -190 31t-152 100
q-60 63 -83.5 141.5t-19.5 149.5t25 176zM780 1726l541 273l43 -154l-543 -250z" />
    <glyph glyph-name="Ucircumflex" unicode="&#xdb;" horiz-adv-x="1343" 
d="M424 1516h242l-174 -947q-12 -60 -16 -93.5t0 -81.5t22 -89q24 -55 79.5 -88t131.5 -33q77 0 142.5 31.5t106.5 85.5q35 40 57.5 88.5t31.5 83t20 96.5l174 947h240l-174 -947q-30 -164 -86.5 -275t-165.5 -190q-169 -133 -385 -133q-96 0 -190 31t-152 100
q-60 63 -83.5 141.5t-19.5 149.5t25 176zM1106 1927l295 -295h-223l-177 152l-227 -152h-223l407 295h148z" />
    <glyph glyph-name="Udieresis" unicode="&#xdc;" horiz-adv-x="1343" 
d="M424 1516h242l-174 -947q-12 -60 -16 -93.5t0 -81.5t22 -89q24 -55 79.5 -88t131.5 -33q77 0 142.5 31.5t106.5 85.5q35 40 57.5 88.5t31.5 83t20 96.5l174 947h240l-174 -947q-30 -164 -86.5 -275t-165.5 -190q-169 -133 -385 -133q-96 0 -190 31t-152 100
q-60 63 -83.5 141.5t-19.5 149.5t25 176zM922 1915l-52 -277h-206l51 277h207zM1337 1915l-51 -277h-207l51 277h207z" />
    <glyph glyph-name="Yacute" unicode="&#xdd;" horiz-adv-x="1239" 
d="M500 0l100 539l-295 977h262l195 -750l473 750h262l-655 -977l-101 -539h-241zM756 1726l540 273l43 -154l-542 -250z" />
    <glyph glyph-name="Thorn" unicode="&#xde;" horiz-adv-x="1187" 
d="M137 0l281 1516h241l-47 -252h191q175 0 261 -23t146 -78q68 -62 94.5 -163.5t4.5 -211.5q-20 -108 -83 -211t-143 -159q-92 -64 -183 -88.5t-251 -24.5h-213l-57 -305h-242zM573 1051l-98 -535h209q80 0 136.5 11t107.5 40q54 29 95 86.5t54 130.5t-7 130.5t-62 86.5
q-43 29 -96.5 39.5t-137.5 10.5h-201z" />
    <glyph glyph-name="germandbls" unicode="&#xdf;" horiz-adv-x="1296" 
d="M135 0l170 918q35 184 74 278t119 170q86 88 199 135t221 47q131 0 223 -56.5t128.5 -150.5t14.5 -208q-20 -113 -86 -191t-154 -121q93 -18 158 -76t90 -140.5t8 -176.5q-24 -123 -104.5 -228t-205.5 -169t-265 -64q-144 2 -231.5 70t-102.5 196l-43 -233h-213zM528 971
l-104 -559h129q-10 -116 49.5 -180t163.5 -66q119 0 209.5 74.5t109.5 181.5q22 122 -45 194q-35 35 -91.5 54t-166.5 20h-98l31 164h63q101 0 185 70t104 176q21 116 -36.5 183t-170.5 67q-145 0 -237 -121q-39 -54 -59 -113t-36 -145z" />
    <glyph glyph-name="agrave" unicode="&#xe0;" horiz-adv-x="1415" 
d="M1481 1114l-207 -1114h-213l37 195q-78 -110 -200 -169t-257 -59q-88 0 -163 22t-129 61.5t-95 94.5t-61 120.5t-25.5 139.5t10.5 152q31 167 131.5 302.5t245.5 211.5t305 76q153 0 248.5 -69t122.5 -160l37 196h213zM391 555v-2q-6 -51 -4 -104t25.5 -104t59.5 -90.5
t97.5 -64t139.5 -24.5q123 0 224.5 60.5t162.5 160.5q49 72 69 166q19 90 -2 166q-23 102 -104 165.5t-209 63.5q-170 0 -299.5 -115.5t-159.5 -277.5zM754 1638l442 -272l-88 -131l-453 250z" />
    <glyph glyph-name="aacute" unicode="&#xe1;" horiz-adv-x="1415" 
d="M1481 1114l-207 -1114h-213l37 195q-78 -110 -200 -169t-257 -59q-88 0 -163 22t-129 61.5t-95 94.5t-61 120.5t-25.5 139.5t10.5 152q31 167 131.5 302.5t245.5 211.5t305 76q153 0 248.5 -69t122.5 -160l37 196h213zM391 555v-2q-6 -51 -4 -104t25.5 -104t59.5 -90.5
t97.5 -64t139.5 -24.5q123 0 224.5 60.5t162.5 160.5q49 72 69 166q19 90 -2 166q-23 102 -104 165.5t-209 63.5q-170 0 -299.5 -115.5t-159.5 -277.5zM707 1374l540 275l43 -156l-542 -250z" />
    <glyph glyph-name="acircumflex" unicode="&#xe2;" horiz-adv-x="1415" 
d="M1481 1114l-207 -1114h-213l37 195q-78 -110 -200 -169t-257 -59q-88 0 -163 22t-129 61.5t-95 94.5t-61 120.5t-25.5 139.5t10.5 152q31 167 131.5 302.5t245.5 211.5t305 76q153 0 248.5 -69t122.5 -160l37 196h213zM391 555v-2q-6 -51 -4 -104t25.5 -104t59.5 -90.5
t97.5 -64t139.5 -24.5q123 0 224.5 60.5t162.5 160.5q49 72 69 166q19 90 -2 166q-23 102 -104 165.5t-209 63.5q-170 0 -299.5 -115.5t-159.5 -277.5zM1061 1577l293 -295h-224l-172 152l-231 -152h-223l409 295h148z" />
    <glyph glyph-name="atilde" unicode="&#xe3;" horiz-adv-x="1415" 
d="M1481 1114l-207 -1114h-213l37 195q-78 -110 -200 -169t-257 -59q-88 0 -163 22t-129 61.5t-95 94.5t-61 120.5t-25.5 139.5t10.5 152q31 167 131.5 302.5t245.5 211.5t305 76q153 0 248.5 -69t122.5 -160l37 196h213zM391 555v-2q-6 -51 -4 -104t25.5 -104t59.5 -90.5
t97.5 -64t139.5 -24.5q123 0 224.5 60.5t162.5 160.5q49 72 69 166q19 90 -2 166q-23 102 -104 165.5t-209 63.5q-170 0 -299.5 -115.5t-159.5 -277.5zM1294 1520l56 -144q-113 -78 -230 -78q-58 0 -176 33q-107 31 -156 31q-88 0 -165 -57l-54 145q47 34 107.5 56t118.5 22
q69 0 174 -33q99 -31 159 -31q94 0 166 56z" />
    <glyph glyph-name="adieresis" unicode="&#xe4;" horiz-adv-x="1415" 
d="M1481 1114l-207 -1114h-213l37 195q-78 -110 -200 -169t-257 -59q-88 0 -163 22t-129 61.5t-95 94.5t-61 120.5t-25.5 139.5t10.5 152q31 167 131.5 302.5t245.5 211.5t305 76q153 0 248.5 -69t122.5 -160l37 196h213zM391 555v-2q-6 -51 -4 -104t25.5 -104t59.5 -90.5
t97.5 -64t139.5 -24.5q123 0 224.5 60.5t162.5 160.5q49 72 69 166q19 90 -2 166q-23 102 -104 165.5t-209 63.5q-170 0 -299.5 -115.5t-159.5 -277.5zM866 1563l-51 -277h-207l51 277h207zM1282 1563l-51 -277h-207l51 277h207z" />
    <glyph glyph-name="aring" unicode="&#xe5;" horiz-adv-x="1415" 
d="M1481 1114l-207 -1114h-213l37 195q-78 -110 -200 -169t-257 -59q-88 0 -163 22t-129 61.5t-95 94.5t-61 120.5t-25.5 139.5t10.5 152q31 167 131.5 302.5t245.5 211.5t305 76q153 0 248.5 -69t122.5 -160l37 196h213zM391 555v-2q-6 -51 -4 -104t25.5 -104t59.5 -90.5
t97.5 -64t139.5 -24.5q123 0 224.5 60.5t162.5 160.5q49 72 69 166q19 90 -2 166q-23 102 -104 165.5t-209 63.5q-170 0 -299.5 -115.5t-159.5 -277.5zM983 1663h2q92 0 146.5 -66.5t37.5 -160.5q-17 -93 -96 -159.5t-172 -66.5q-94 0 -148.5 67t-37.5 159q17 94 95.5 160.5
t172.5 66.5zM963 1546h-2q-44 0 -82 -32t-45 -76q-8 -44 18 -75.5t70 -31.5q45 0 83.5 31.5t45.5 75.5q8 45 -17.5 76.5t-70.5 31.5z" />
    <glyph glyph-name="ae" unicode="&#xe6;" horiz-adv-x="2291" 
d="M2306 496h-946q-7 -80 11.5 -143t51.5 -100t77.5 -61t85.5 -33t81 -9q195 0 361 188h219q-102 -162 -257.5 -266.5t-340.5 -104.5q-135 0 -228 64.5t-127 179.5l-39 -211h-196l39 211q-67 -108 -191.5 -176t-261.5 -68q-72 0 -134.5 15t-110.5 42t-87 63.5t-65.5 80
t-45 91.5t-26 98.5t-7.5 100.5t9 97q30 165 129.5 300.5t247 213.5t311.5 78q138 0 234 -64t127 -172l39 203h196l-37 -201q81 113 195 173.5t242 60.5q117 0 211 -44.5t157 -125.5q45 -55 70.5 -126t29.5 -162t-24 -193zM393 561v-2q-32 -170 59.5 -281.5t258.5 -111.5
q157 0 288.5 115.5t161.5 273.5q30 164 -55 276q-89 117 -256 117q-89 0 -170.5 -35t-139 -91.5t-96 -124t-51.5 -136.5zM1391 643h733q-3 160 -86 241t-219 81q-164 0 -293 -115q-37 -34 -65.5 -73.5t-41 -66t-28.5 -67.5z" />
    <glyph glyph-name="ccedilla" unicode="&#xe7;" horiz-adv-x="1304" 
d="M680 -31l-55 -82q17 7 37 7q65 0 106 -46.5t27 -121.5q-13 -74 -75.5 -130.5t-154.5 -56.5q-14 0 -29.5 2t-41 11t-44.5 25t-32.5 48.5t-11.5 75.5h110q4 -32 22.5 -47.5t45.5 -15.5q36 0 63.5 23.5t36.5 64.5q6 36 -14 57.5t-54 21.5q-43 0 -73 -38l-86 43l108 167
q-208 33 -317.5 194.5t-67.5 387.5q29 162 130 297t250.5 213t313.5 78q203 0 342 -117.5t154 -314.5h-219q-23 107 -107 168t-200 61q-160 0 -291 -108q-60 -48 -103.5 -122.5t-58.5 -156.5q-30 -170 59 -280.5t250 -110.5q130 1 232.5 66.5t157.5 158.5h219
q-85 -181 -254.5 -298t-374.5 -124z" />
    <glyph glyph-name="egrave" unicode="&#xe8;" horiz-adv-x="1298" 
d="M1319 489h-952q-11 -81 12 -147.5t70 -107t106.5 -62.5t124.5 -22q221 0 356 188h221q-116 -183 -276 -277q-158 -94 -336 -94q-132 0 -235.5 50.5t-162.5 133t-81 188t-2 216.5q29 158 130 293.5t252 217t316 81.5q242 0 381 -164q79 -99 98 -227.5t-22 -266.5zM401 655
h738q7 56 -11.5 111.5t-57.5 100.5t-102.5 72t-140.5 26q-155 0 -275 -94t-151 -216zM713 1638l442 -272l-90 -131l-451 250z" />
    <glyph glyph-name="eacute" unicode="&#xe9;" horiz-adv-x="1298" 
d="M1319 489h-952q-11 -81 12 -147.5t70 -107t106.5 -62.5t124.5 -22q221 0 356 188h221q-116 -183 -276 -277q-158 -94 -336 -94q-132 0 -235.5 50.5t-162.5 133t-81 188t-2 216.5q29 158 130 293.5t252 217t316 81.5q242 0 381 -164q79 -99 98 -227.5t-22 -266.5zM401 655
h738q7 56 -11.5 111.5t-57.5 100.5t-102.5 72t-140.5 26q-155 0 -275 -94t-151 -216zM649 1374l539 275l45 -156l-545 -250z" />
    <glyph glyph-name="ecircumflex" unicode="&#xea;" horiz-adv-x="1298" 
d="M1319 489h-952q-11 -81 12 -147.5t70 -107t106.5 -62.5t124.5 -22q221 0 356 188h221q-116 -183 -276 -277q-158 -94 -336 -94q-132 0 -235.5 50.5t-162.5 133t-81 188t-2 216.5q29 158 130 293.5t252 217t316 81.5q242 0 381 -164q79 -99 98 -227.5t-22 -266.5zM401 655
h738q7 56 -11.5 111.5t-57.5 100.5t-102.5 72t-140.5 26q-155 0 -275 -94t-151 -216zM1018 1577l293 -295h-221l-175 152l-229 -152h-223l407 295h148z" />
    <glyph glyph-name="edieresis" unicode="&#xeb;" horiz-adv-x="1298" 
d="M1319 489h-952q-11 -81 12 -147.5t70 -107t106.5 -62.5t124.5 -22q221 0 356 188h221q-116 -183 -276 -277q-158 -94 -336 -94q-132 0 -235.5 50.5t-162.5 133t-81 188t-2 216.5q29 158 130 293.5t252 217t316 81.5q242 0 381 -164q79 -99 98 -227.5t-22 -266.5zM401 655
h738q7 56 -11.5 111.5t-57.5 100.5t-102.5 72t-140.5 26q-155 0 -275 -94t-151 -216zM829 1563l-51 -277h-207l52 277h206zM1245 1563l-51 -277h-207l51 277h207z" />
    <glyph glyph-name="igrave" unicode="&#xec;" horiz-adv-x="491" 
d="M139 0l207 1114h213l-207 -1114h-213zM266 1638l443 -272l-88 -131l-453 250z" />
    <glyph glyph-name="iacute" unicode="&#xed;" horiz-adv-x="491" 
d="M139 0l207 1114h213l-207 -1114h-213zM289 1374l540 275l43 -156l-542 -250z" />
    <glyph glyph-name="icircumflex" unicode="&#xee;" horiz-adv-x="491" 
d="M139 0l207 1114h213l-207 -1114h-213zM616 1577l293 -295h-223l-172 152l-229 -152h-226l410 295h147z" />
    <glyph glyph-name="idieresis" unicode="&#xef;" horiz-adv-x="491" 
d="M139 0l207 1114h213l-207 -1114h-213zM430 1563l-51 -277h-205l51 277h205zM846 1563l-51 -277h-207l51 277h207z" />
    <glyph glyph-name="eth" unicode="&#xf0;" horiz-adv-x="1341" 
d="M901 1264l-495 -134l28 148l322 86q-72 41 -240 104l236 66q119 -44 239 -117l445 117l-29 -148l-279 -73q163 -119 228 -303q64 -178 20 -410q-52 -279 -255 -454t-457 -177q-119 0 -219 40.5t-168 114t-95.5 185.5t-3.5 246q25 134 91 245t155.5 183.5t195.5 112.5
t214 41q88 0 165.5 -34.5t122.5 -96.5q-13 49 -51 100q-71 99 -170 158zM393 559l-2 -2q-19 -106 10 -193.5t107.5 -141.5t193.5 -54q173 0 299 117t156 274q19 100 -11.5 188.5t-107.5 144.5t-184 56q-178 0 -305 -114t-156 -275z" />
    <glyph glyph-name="ntilde" unicode="&#xf1;" horiz-adv-x="1302" 
d="M139 0l207 1114h201l-33 -172q61 93 167.5 149.5t248.5 55.5q86 -1 152.5 -21.5t107.5 -57t67.5 -83t35.5 -103t7.5 -112.5t-12.5 -117l-121 -653h-215l113 604q30 161 -23 252t-208 90q-153 -1 -245.5 -88t-121.5 -237l-115 -621h-213zM1251 1520l54 -144
q-113 -78 -230 -78q-58 0 -176 33q-107 31 -156 31q-88 0 -165 -57l-54 145q46 34 108 56t118 22q69 0 174 -33q99 -31 159 -31q93 0 168 56z" />
    <glyph glyph-name="ograve" unicode="&#xf2;" horiz-adv-x="1341" 
d="M178 557l2 2q20 112 80 217t149.5 188t213.5 133t260 50q92 0 170 -23t134 -63.5t98.5 -96.5t63 -121.5t27 -138t-9.5 -147.5q-21 -113 -81 -218t-149 -188t-212.5 -132.5t-259.5 -49.5q-92 0 -170.5 23t-134.5 63t-99 95.5t-63.5 121t-27.5 138t9 147.5zM391 557v-2
q-31 -165 58.5 -276t250.5 -111t291.5 111.5t161.5 277.5q32 166 -57 277.5t-250 111.5t-292 -111.5t-163 -277.5zM733 1638l443 -272l-89 -131l-452 250z" />
    <glyph glyph-name="oacute" unicode="&#xf3;" horiz-adv-x="1341" 
d="M178 557l2 2q20 112 80 217t149.5 188t213.5 133t260 50q92 0 170 -23t134 -63.5t98.5 -96.5t63 -121.5t27 -138t-9.5 -147.5q-21 -113 -81 -218t-149 -188t-212.5 -132.5t-259.5 -49.5q-92 0 -170.5 23t-134.5 63t-99 95.5t-63.5 121t-27.5 138t9 147.5zM391 557v-2
q-31 -165 58.5 -276t250.5 -111t291.5 111.5t161.5 277.5q32 166 -57 277.5t-250 111.5t-292 -111.5t-163 -277.5zM670 1374l540 275l43 -156l-542 -250z" />
    <glyph glyph-name="ocircumflex" unicode="&#xf4;" horiz-adv-x="1341" 
d="M178 557l2 2q20 112 80 217t149.5 188t213.5 133t260 50q92 0 170 -23t134 -63.5t98.5 -96.5t63 -121.5t27 -138t-9.5 -147.5q-21 -113 -81 -218t-149 -188t-212.5 -132.5t-259.5 -49.5q-92 0 -170.5 23t-134.5 63t-99 95.5t-63.5 121t-27.5 138t9 147.5zM391 557v-2
q-31 -165 58.5 -276t250.5 -111t291.5 111.5t161.5 277.5q32 166 -57 277.5t-250 111.5t-292 -111.5t-163 -277.5zM1040 1577l293 -295h-223l-172 152l-229 -152h-226l410 295h147z" />
    <glyph glyph-name="otilde" unicode="&#xf5;" horiz-adv-x="1341" 
d="M178 557l2 2q20 112 80 217t149.5 188t213.5 133t260 50q92 0 170 -23t134 -63.5t98.5 -96.5t63 -121.5t27 -138t-9.5 -147.5q-21 -113 -81 -218t-149 -188t-212.5 -132.5t-259.5 -49.5q-92 0 -170.5 23t-134.5 63t-99 95.5t-63.5 121t-27.5 138t9 147.5zM391 557v-2
q-31 -165 58.5 -276t250.5 -111t291.5 111.5t161.5 277.5q32 166 -57 277.5t-250 111.5t-292 -111.5t-163 -277.5zM1270 1520l53 -144q-110 -78 -229 -78q-56 0 -174 33q-110 31 -156 31q-88 0 -168 -57l-53 145q46 34 107.5 56t117.5 22q73 0 174 -33q103 -31 160 -31
q93 0 168 56z" />
    <glyph glyph-name="odieresis" unicode="&#xf6;" horiz-adv-x="1341" 
d="M178 557l2 2q20 112 80 217t149.5 188t213.5 133t260 50q92 0 170 -23t134 -63.5t98.5 -96.5t63 -121.5t27 -138t-9.5 -147.5q-21 -113 -81 -218t-149 -188t-212.5 -132.5t-259.5 -49.5q-92 0 -170.5 23t-134.5 63t-99 95.5t-63.5 121t-27.5 138t9 147.5zM391 557v-2
q-31 -165 58.5 -276t250.5 -111t291.5 111.5t161.5 277.5q32 166 -57 277.5t-250 111.5t-292 -111.5t-163 -277.5zM854 1563l-51 -277h-205l51 277h205zM1270 1563l-51 -277h-205l51 277h205z" />
    <glyph glyph-name="divide" unicode="&#xf7;" horiz-adv-x="1228" 
d="M920 1096l-48 -256h-204l47 256h205zM176 412l39 206h1028l-39 -206h-1028zM752 190l-47 -253h-205l47 253h205z" />
    <glyph glyph-name="oslash" unicode="&#xf8;" horiz-adv-x="1341" 
d="M1241 1184h217l-186 -205q141 -174 94 -422q-21 -114 -81.5 -220t-150 -188.5t-212 -132t-256.5 -49.5q-160 0 -267 68l-94 -105h-217l186 203q-66 75 -92.5 186t-3.5 236q22 115 82.5 220.5t150 189t213.5 133t261 49.5q167 0 264 -68zM444 307l551 600q-61 39 -147 39
q-163 0 -294.5 -112t-162.5 -277q-26 -160 53 -250zM1104 803l-549 -596q61 -41 145 -41q167 0 295 114t158 277q28 155 -49 246z" />
    <glyph glyph-name="ugrave" unicode="&#xf9;" horiz-adv-x="1304" 
d="M1372 1114l-207 -1114h-200l32 172q-61 -93 -167.5 -149.5t-247.5 -55.5q-75 0 -135 16t-100.5 42.5t-69.5 64.5t-44 80.5t-20.5 92.5t-2.5 98t13 100l121 653h213l-113 -604q-63 -344 234 -344q151 1 244 89t120 237l117 622h213zM649 1638l443 -272l-91 -131l-452 250z
" />
    <glyph glyph-name="uacute" unicode="&#xfa;" horiz-adv-x="1304" 
d="M1372 1114l-207 -1114h-200l32 172q-61 -93 -167.5 -149.5t-247.5 -55.5q-75 0 -135 16t-100.5 42.5t-69.5 64.5t-44 80.5t-20.5 92.5t-2.5 98t13 100l121 653h213l-113 -604q-63 -344 234 -344q151 1 244 89t120 237l117 622h213zM696 1374l539 275l45 -156l-545 -250z
" />
    <glyph glyph-name="ucircumflex" unicode="&#xfb;" horiz-adv-x="1304" 
d="M1372 1114l-207 -1114h-200l32 172q-61 -93 -167.5 -149.5t-247.5 -55.5q-75 0 -135 16t-100.5 42.5t-69.5 64.5t-44 80.5t-20.5 92.5t-2.5 98t13 100l121 653h213l-113 -604q-63 -344 234 -344q151 1 244 89t120 237l117 622h213zM1022 1577l293 -295h-223l-172 152
l-230 -152h-225l409 295h148z" />
    <glyph glyph-name="udieresis" unicode="&#xfc;" horiz-adv-x="1304" 
d="M1372 1114l-207 -1114h-200l32 172q-61 -93 -167.5 -149.5t-247.5 -55.5q-75 0 -135 16t-100.5 42.5t-69.5 64.5t-44 80.5t-20.5 92.5t-2.5 98t13 100l121 653h213l-113 -604q-63 -344 234 -344q151 1 244 89t120 237l117 622h213zM836 1563l-52 -277h-204l51 277h205z
M1251 1563l-51 -277h-205l52 277h204z" />
    <glyph glyph-name="yacute" unicode="&#xfd;" horiz-adv-x="1089" 
d="M176 -406l266 439l-225 1081h229l156 -815l463 815h229l-891 -1520h-227zM616 1374l539 275l45 -156l-545 -250z" />
    <glyph glyph-name="thorn" unicode="&#xfe;" horiz-adv-x="1411" 
d="M63 -406l357 1922h213l-84 -451l-25 -137q84 109 207.5 164t251.5 55q90 0 166 -24t128.5 -66t92 -99t56.5 -123t22.5 -138.5t-10.5 -145.5q-30 -162 -127 -295.5t-241 -211t-304 -77.5q-152 0 -247.5 64t-131.5 153l-27 -141l-84 -449h-213zM1225 557l2 2
q19 103 -12 191t-111 142t-195 54q-167 0 -301 -115q-135 -118 -164 -278q-27 -144 60 -266q41 -56 108 -88.5t152 -32.5q170 0 300.5 114t160.5 277z" />
    <glyph glyph-name="ydieresis" unicode="&#xff;" horiz-adv-x="1089" 
d="M176 -406l266 439l-225 1081h229l156 -815l463 815h229l-891 -1520h-227zM729 1563l-51 -277h-207l51 277h207zM1145 1563l-51 -277h-207l51 277h207z" />
    <glyph glyph-name="dotlessi" unicode="&#x131;" horiz-adv-x="491" 
d="M139 0l207 1114h213l-207 -1114h-213z" />
    <glyph glyph-name="Lslash" unicode="&#x141;" horiz-adv-x="937" 
d="M88 436l47 244l166 108l135 728h242l-103 -553l304 192l-48 -244l-301 -196l-94 -502h535l-39 -213h-776l100 545z" />
    <glyph glyph-name="lslash" unicode="&#x142;" horiz-adv-x="587" 
d="M297 606l-160 -98l41 223l160 96l127 689h213l-103 -553l185 112l-41 -219l-184 -115l-138 -741h-213z" />
    <glyph glyph-name="OE" unicode="&#x152;" horiz-adv-x="2308" 
d="M1888 1303l-80 -431h539l-39 -210h-539l-83 -449h548l-39 -213h-782l25 133l24 133q-118 -140 -281 -217.5t-327 -77.5q-218 0 -378.5 104t-229 284t-29.5 397q30 159 114 303t205.5 251t281 170.5t331.5 63.5q201 0 328.5 -83.5t167.5 -211.5l24 135l25 132h782
l-39 -213h-549zM457 756v-2q-13 -87 -7 -169.5t41.5 -155t89 -127.5t135.5 -86.5t181 -31.5q122 0 235 47.5t197 127t143 184.5t80 219q26 157 -18 286.5t-155 206t-269 76.5q-121 0 -233.5 -46.5t-197 -125t-143 -183t-79.5 -220.5z" />
    <glyph glyph-name="oe" unicode="&#x153;" horiz-adv-x="2277" 
d="M2292 498h-946q-10 -81 9.5 -148t62 -110t102 -66.5t129.5 -23.5q109 0 203.5 50t154.5 138h221q-29 -46 -54 -79.5t-74.5 -83.5t-106.5 -89q-182 -119 -373 -119q-96 0 -173.5 25.5t-127 68.5t-79.5 91t-44 102q-86 -130 -226 -208.5t-313 -78.5q-81 0 -151.5 18.5
t-122 51.5t-93.5 77.5t-66.5 97t-40 110.5t-14.5 116.5t9 116.5q30 160 128.5 294.5t252 216t328.5 81.5q159 0 272.5 -80t149.5 -205q31 47 78.5 92.5t113 89.5t153 71.5t179.5 27.5q121 0 219 -45.5t164 -128.5q75 -94 95.5 -217.5t-19.5 -253.5zM391 557v-2
q-29 -164 60 -276.5t251 -112.5q83 0 162 34.5t136.5 90.5t97.5 125t53 139q9 59 4.5 115t-30 106.5t-62.5 88.5t-93 60.5t-122 22.5q-157 0 -290.5 -109.5t-166.5 -281.5zM1380 645h725q3 44 -6.5 88.5t-33.5 85.5t-59.5 72.5t-88 50.5t-115.5 19q-139 0 -258.5 -88
t-163.5 -228z" />
    <glyph glyph-name="Scaron" unicode="&#x160;" horiz-adv-x="1122" 
d="M154 449h239q-8 -65 3.5 -115.5t33.5 -79t53.5 -47.5t59.5 -25t55 -6q102 0 190 71t107 171q4 23 4.5 43t-4 37.5t-10.5 32.5t-18 28.5t-23.5 24t-30.5 22t-34.5 19.5t-40 18.5t-43 18t-46.5 18.5q-27 11 -41 16q-49 17 -81 30.5t-87.5 49t-86 75.5t-48.5 108t-4 149
q18 102 75 186.5t135 138t168 82.5t181 29q61 0 118 -13t110.5 -44.5t90.5 -78.5t54 -119.5t6 -162.5h-238q-1 31 -3.5 54t-13.5 55.5t-30 53t-55 35.5t-86 15q-95 0 -172.5 -59.5t-95.5 -153.5q-10 -42 -0.5 -74.5t28.5 -56.5t57.5 -46t86.5 -43t114 -47q4 -1 6.5 -2
t6 -2.5t6.5 -2.5q32 -15 57 -27.5t54 -29.5t51 -33.5t44 -37.5t37 -43t28 -50t18.5 -58t5 -66.5t-7.5 -76.5q-17 -93 -64 -175.5t-119 -146t-173.5 -100.5t-219.5 -37q-226 0 -335.5 129t-71.5 349zM494 1921h223l172 -152l229 152h223l-405 -295h-150z" />
    <glyph glyph-name="scaron" unicode="&#x161;" horiz-adv-x="954" 
d="M995 823h-211q11 68 -23 109.5t-112 40.5q-75 0 -125.5 -42.5t-60.5 -101.5q-8 -62 35.5 -98t136.5 -63q137 -40 192 -72q129 -77 112 -239q-1 -12 -3 -25q-18 -106 -87 -190t-168.5 -129.5t-209.5 -45.5q-55 0 -107 12t-99.5 40t-80.5 68t-48.5 101t-4.5 134h211
q-6 -48 7 -84.5t39 -57t56 -30t62 -9.5q77 0 138.5 48t74.5 118q7 41 -3 70t-45 54t-76.5 43t-121.5 46q-125 40 -186 106t-41 183q28 153 154 245.5t284 92.5q49 0 94.5 -9.5t89.5 -33.5t74.5 -59.5t45.5 -93t7 -128.5zM344 1565h223l172 -152l230 152h223l-406 -295h-149z
" />
    <glyph glyph-name="Ydieresis" unicode="&#x178;" horiz-adv-x="1239" 
d="M500 0l100 539l-295 977h262l195 -750l473 750h262l-655 -977l-101 -539h-241zM868 1915l-51 -277h-205l52 277h204zM1284 1915l-51 -277h-205l51 277h205z" />
    <glyph glyph-name="Zcaron" unicode="&#x17d;" horiz-adv-x="1021" 
d="M1225 1327l-856 -1114h667l-39 -213h-960l29 156l882 1147h-682l39 213h955zM436 1909h223l175 -152l229 152h223l-407 -293h-150z" />
    <glyph glyph-name="zcaron" unicode="&#x17e;" horiz-adv-x="874" 
d="M29 0l28 152l713 796h-549l31 166h784l-30 -168l-693 -780h564l-31 -166h-817zM319 1559h224l172 -152l229 152h223l-403 -293h-150z" />
    <glyph glyph-name="florin" unicode="&#x192;" 
d="M989 1057h211l-31 -166h-239l-299 -813q-29 -81 -48.5 -127t-55 -106.5t-78.5 -106.5q-76 -81 -178 -122.5t-214 -41.5q-69 0 -112 14l69 195q50 -12 68 -12q60 0 108 16.5t79 40t57.5 63.5t40.5 73t32 83l310 844h-213l30 166h242q41 128 93 219.5t134 157.5
q132 110 310 110q37 0 71 -6l-63 -174q-36 0 -56 -2q-90 -12 -145 -70q-29 -26 -55 -71.5t-38.5 -79t-29.5 -84.5z" />
    <glyph glyph-name="circumflex" unicode="&#x2c6;" horiz-adv-x="1136" 
d="M938 1577l293 -295h-223l-172 152l-232 -152h-223l410 295h147z" />
    <glyph glyph-name="caron" unicode="&#x2c7;" horiz-adv-x="1136" 
d="M434 1565h223l172 -152l232 152h223l-407 -295h-150z" />
    <glyph glyph-name="uni02C9" unicode="&#x2c9;" horiz-adv-x="1136" 
d="M1212 1505l-30 -170h-733l30 170h733z" />
    <glyph glyph-name="breve" unicode="&#x2d8;" horiz-adv-x="1136" 
d="M444 1534h174q27 -46 74 -66q55 -22 150 -22q81 0 146.5 24.5t98.5 63.5h175q-41 -112 -166 -180t-291 -68q-149 0 -250.5 64t-110.5 184z" />
    <glyph glyph-name="dotaccent" unicode="&#x2d9;" horiz-adv-x="1136" 
d="M961 1563l-52 -277h-207l52 277h207z" />
    <glyph glyph-name="ring" unicode="&#x2da;" horiz-adv-x="1136" 
d="M874 1663h3q92 0 146.5 -66.5t37.5 -160.5q-17 -93 -96 -159.5t-172 -66.5q-94 0 -148 67t-37 159q17 94 95 160.5t171 66.5zM854 1546h-2q-44 0 -82 -32t-45 -76q-8 -44 18 -75.5t70 -31.5q45 0 83.5 31.5t45.5 75.5q8 45 -17.5 76.5t-70.5 31.5z" />
    <glyph glyph-name="ogonek" unicode="&#x2db;" horiz-adv-x="1136" 
d="M553 0h121q-6 -3 -24.5 -14.5t-24.5 -15.5t-22 -14.5t-22.5 -16t-19.5 -15.5t-19 -17l-15 -17.5t-13.5 -19.5t-9 -20.5t-6.5 -23.5q-9 -50 20.5 -84.5t79.5 -34.5q34 0 111 25l-23 -123q-2 -1 -17.5 -6t-20.5 -6.5t-19 -5.5t-22.5 -5.5t-22 -3.5t-26.5 -3t-28 -1
q-107 0 -157.5 56.5t-34.5 142.5q12 69 65 119t150 104z" />
    <glyph glyph-name="tilde" unicode="&#x2dc;" horiz-adv-x="1136" 
d="M1167 1520l54 -144q-110 -78 -230 -78q-54 0 -176 33q-107 31 -156 31q-85 0 -165 -57l-54 145q46 34 108 56t118 22q69 0 174 -33q103 -31 159 -31q93 0 168 56z" />
    <glyph glyph-name="hungarumlaut" unicode="&#x2dd;" horiz-adv-x="1136" 
d="M444 1352l396 299l98 -127l-408 -283zM844 1352l395 299l100 -127l-409 -283z" />
    <glyph glyph-name="uni03A9" unicode="&#x3a9;" horiz-adv-x="1548" 
d="M436 178l2 6q-100 110 -148 275t-11 368q37 200 150.5 362.5t281 256.5t354.5 94q98 0 182 -27.5t143.5 -76.5t104.5 -115.5t65.5 -144.5t26.5 -163.5t-12 -172.5q-38 -208 -152 -380.5t-252 -275.5l-2 -6h314l-33 -178h-545l25 131q141 82 257.5 252.5t160.5 411.5
q13 84 13 164.5t-23.5 153t-61.5 127t-102 86.5t-144 32q-195 0 -345.5 -162.5t-195.5 -409.5q-42 -226 12.5 -402.5t164.5 -252.5l-25 -131h-547l33 178h309z" />
    <glyph glyph-name="uni03BC" unicode="&#x3bc;" horiz-adv-x="1230" 
d="M61 -381l277 1495h213l-109 -586q-32 -177 9 -260q55 -102 192 -102q139 0 229 110q91 104 127 297l101 541h213l-207 -1114h-205l35 186q-129 -209 -326 -209q-183 0 -243 144l-27 -139l-66 -363h-213z" />
    <glyph glyph-name="pi" unicode="&#x3c0;" horiz-adv-x="1269" 
d="M1391 948h-164l-117 -626q-37 -201 -29 -322h-211q-23 69 21 307l119 641h-348q-49 -218 -146 -508t-180 -440h-211q90 178 184 459.5t137 488.5q-147 0 -231 -24l-2 143q103 66 344 66h885z" />
    <glyph glyph-name="uni2010" unicode="&#x2010;" horiz-adv-x="561" 
d="M127 686h561l-39 -211h-561z" />
    <glyph glyph-name="endash" unicode="&#x2013;" horiz-adv-x="1024" 
d="M199 686h880l-39 -211h-880z" />
    <glyph glyph-name="emdash" unicode="&#x2014;" horiz-adv-x="2048" 
d="M199 686h1904l-39 -211h-1904z" />
    <glyph glyph-name="quoteleft" unicode="&#x2018;" horiz-adv-x="608" 
d="M651 1516l76 -424h-166l-100 424h190z" />
    <glyph glyph-name="quoteright" unicode="&#x2019;" horiz-adv-x="608" 
d="M287 1092l231 424h193l-258 -424h-166z" />
    <glyph glyph-name="quotesinglbase" unicode="&#x201a;" horiz-adv-x="608" 
d="M51 -182l232 424h192l-258 -424h-166z" />
    <glyph glyph-name="quotedblleft" unicode="&#x201c;" horiz-adv-x="966" 
d="M694 1516l76 -424h-166l-100 424h190zM985 1516l76 -424h-166l-100 424h190z" />
    <glyph glyph-name="quotedblright" unicode="&#x201d;" horiz-adv-x="966" 
d="M311 1092l232 424h190l-256 -424h-166zM602 1092l232 424h190l-256 -424h-166z" />
    <glyph glyph-name="quotedblbase" unicode="&#x201e;" horiz-adv-x="966" 
d="M76 -182l231 424h191l-256 -424h-166zM367 -182l231 424h190l-256 -424h-165z" />
    <glyph glyph-name="dagger" unicode="&#x2020;" horiz-adv-x="1284" 
d="M1030 1516l-74 -398h349l-33 -184h-348l-242 -1301h-215l242 1301h-349l33 184h348l74 398h215z" />
    <glyph glyph-name="daggerdbl" unicode="&#x2021;" horiz-adv-x="1284" 
d="M1030 1516l-61 -336h348l-35 -187h-348l-137 -743h348l-35 -187h-348l-80 -430h-213l80 430h-350l34 187h351l137 743h-350l35 187h350l61 336h213z" />
    <glyph glyph-name="bullet" unicode="&#x2022;" horiz-adv-x="1179" 
d="M780 1022h2q103 0 162 -75t39 -179q-19 -104 -106 -178t-191 -74q-105 0 -165.5 74.5t-41.5 177.5q21 105 107 179.5t194 74.5z" />
    <glyph glyph-name="ellipsis" unicode="&#x2026;" horiz-adv-x="2048" 
d="M231 0l50 268h223l-49 -268h-224zM913 0l50 268h223l-49 -268h-224zM1595 0l50 268h223l-49 -268h-224z" />
    <glyph glyph-name="perthousand" unicode="&#x2030;" horiz-adv-x="2420" 
d="M281 1190v2q28 148 148 250t269 102q150 0 233.5 -102t55.5 -252q-28 -149 -149 -250.5t-271 -101.5q-148 0 -231 101.5t-55 250.5zM432 1190l-2 -2q-15 -86 31 -144.5t133 -58.5q86 0 155.5 59t86.5 148q15 88 -32 146.5t-134 58.5q-88 0 -155.5 -59t-82.5 -148z
M920 326l2 2q26 148 147.5 250t271.5 102q148 0 230.5 -102.5t54.5 -251.5q-28 -150 -149.5 -252.5t-268.5 -102.5q-150 0 -233 101.5t-55 253.5zM1071 326v-2q-15 -87 31.5 -146t134.5 -59q87 0 155 59t83 148q17 89 -29 146.5t-133 57.5q-89 0 -157 -58t-85 -146z
M1716 326l2 2q26 148 147.5 250t270.5 102t232 -102.5t55 -251.5q-28 -150 -150 -252.5t-270 -102.5t-231.5 101.5t-55.5 253.5zM1866 326v-2q-15 -87 32 -146t134 -59q88 0 156 59t83 148q17 89 -29.5 146.5t-134.5 57.5q-87 0 -155.5 -58t-85.5 -146zM1552 1516
l-1046 -1516h-160l1047 1516h159z" />
    <glyph glyph-name="guilsinglleft" unicode="&#x2039;" horiz-adv-x="479" 
d="M162 573l287 383h163l-286 -383l143 -380h-164z" />
    <glyph glyph-name="guilsinglright" unicode="&#x203a;" horiz-adv-x="479" 
d="M387 956l143 -383l-286 -380h-164l287 380l-144 383h164z" />
    <glyph glyph-name="fraction" unicode="&#x2044;" horiz-adv-x="317" 
d="M-260 0l934 1516h182l-934 -1516h-182z" />
    <glyph glyph-name="Euro" unicode="&#x20ac;" horiz-adv-x="1136" 
d="M983 709l-53 -156h-418q-2 -23 -2 -66q0 -164 43.5 -242.5t155.5 -78.5q31 0 55.5 3.5t58 17.5t60.5 38.5t55.5 70t50.5 107.5h203q-25 -96 -67 -170.5t-92.5 -123.5t-113 -80.5t-126 -44.5t-134.5 -13q-372 0 -372 475q0 33 4 107h-168l53 156h135q5 38 8 51
q17 80 17 82h-170l53 155h158q168 549 581 549q85 0 151 -25t105.5 -63.5t65 -90.5t34.5 -100.5t9 -99.5q0 -6 -1 -16.5t-1 -15.5h-199q-1 104 -54 160.5t-142 56.5q-115 0 -195 -87.5t-135 -267.5h483l-53 -155h-471q-3 -15 -8 -42.5t-8 -39.5q-5 -21 -9 -51h453z" />
    <glyph glyph-name="afii61289" unicode="&#x2113;" horiz-adv-x="1081" 
d="M1008 358l77 -90q-200 -288 -479 -288q-92 0 -157.5 30.5t-99 84t-45 120t-1.5 145.5q0 4 1 12.5t1 12.5q-24 -16 -71 -49t-64 -45l-37 121q164 116 203 149l104 569q27 141 76.5 248t112.5 168t131 91t141 30q141 0 194.5 -103t24.5 -266q-35 -189 -183 -378.5
t-400 -395.5l-15 -82q-24 -144 23 -216t141 -72q88 0 173 59.5t149 144.5zM651 1141l-76 -412q355 329 402 574q38 206 -98 206q-64 0 -128 -87.5t-100 -280.5z" />
    <glyph glyph-name="trademark" unicode="&#x2122;" horiz-adv-x="2027" 
d="M868 606l168 910h213l166 -682l416 682h213l-168 -910h-158l131 713l-422 -713h-110l-160 709l-131 -709h-158zM360 606l142 768h-215l26 142h600l-26 -142h-217l-142 -768h-168z" />
    <glyph glyph-name="Omega" unicode="&#x2126;" horiz-adv-x="1548" 
d="M436 178l2 6q-100 110 -148 275t-11 368q37 200 150.5 362.5t281 256.5t354.5 94q98 0 182 -27.5t143.5 -76.5t104.5 -115.5t65.5 -144.5t26.5 -163.5t-12 -172.5q-38 -208 -152 -380.5t-252 -275.5l-2 -6h314l-33 -178h-545l25 131q141 82 257.5 252.5t160.5 411.5
q13 84 13 164.5t-23.5 153t-61.5 127t-102 86.5t-144 32q-195 0 -345.5 -162.5t-195.5 -409.5q-42 -226 12.5 -402.5t164.5 -252.5l-25 -131h-547l33 178h309z" />
    <glyph glyph-name="estimated" unicode="&#x212e;" horiz-adv-x="2181" 
d="M2107 735h-1415q-10 0 -10 -8v-428q0 -28 18 -49q106 -109 244 -171.5t291 -62.5q165 0 311.5 69.5t251.5 190.5h125q-120 -139 -301.5 -221t-388.5 -82q-177 0 -338.5 62t-278.5 167t-186.5 250.5t-69.5 305.5t69.5 305.5t186.5 250.5t278.5 167.5t338.5 62.5
q178 0 340 -62.5t279 -167.5t186 -250.5t69 -305.5v-23zM1786 793v430q0 30 -21 51q-106 104 -242.5 163.5t-287.5 59.5t-289 -61.5t-244 -169.5q-20 -20 -20 -54v-419q0 -15 10 -15h1086q8 0 8 15z" />
    <glyph glyph-name="partialdiff" unicode="&#x2202;" horiz-adv-x="1214" 
d="M485 1419l-36 162q186 123 401 123q114 0 206 -51t154.5 -153.5t79 -257t-19.5 -361.5q-49 -264 -153.5 -465.5t-260 -317.5t-340.5 -116q-72 0 -131 20.5t-98.5 57t-68 85t-40 105t-13.5 117t11 120.5q23 126 80 232.5t134 178t169 111.5t186 40q67 0 124 -21t93 -53
t57.5 -61.5t31.5 -55.5h2q3 11 16 84q27 168 4 297.5t-98 207t-184 77.5q-160 0 -306 -105zM571 162h2q66 0 132.5 43t120 115t96.5 160.5t71 183.5q-5 33 -21.5 68t-45 67.5t-73.5 53.5t-99 21q-122 0 -227.5 -115.5t-135.5 -275.5q-27 -138 23 -229.5t157 -91.5z" />
    <glyph glyph-name="uni2206" unicode="&#x2206;" horiz-adv-x="1413" 
d="M63 0l25 135l782 1417h256l248 -1415l-24 -137h-1287zM317 176h832l-139 737q-6 47 -31.5 195.5t-28.5 202.5h-8q-18 -41 -89.5 -174.5t-98.5 -190.5z" />
    <glyph glyph-name="product" unicode="&#x220f;" horiz-adv-x="1818" 
d="M1765 1315h-229v-1524h-217v1524h-537v-1524h-217v1524h-229v201h1429v-201z" />
    <glyph glyph-name="summation" unicode="&#x2211;" horiz-adv-x="1486" 
d="M1442 -209h-1110v143l551 719l-529 707v156h1053v-189h-754v-8l480 -631l-525 -686v-4h834v-207z" />
    <glyph glyph-name="minus" unicode="&#x2212;" horiz-adv-x="1228" 
d="M176 412l39 206h1028l-39 -206h-1028z" />
    <glyph glyph-name="uni2215" unicode="&#x2215;" horiz-adv-x="317" 
d="M-260 0l934 1516h182l-934 -1516h-182z" />
    <glyph glyph-name="uni2219" unicode="&#x2219;" horiz-adv-x="608" 
d="M539 653l-50 -266h-223l49 266h224z" />
    <glyph glyph-name="radical" unicode="&#x221a;" horiz-adv-x="1546" 
d="M1559 1810l-484 -2123h-182l-336 977l-160 -62l-39 127l334 133l250 -747q38 -164 39 -172l4 -2q3 26 31 182l387 1687h156z" />
    <glyph glyph-name="infinity" unicode="&#x221e;" horiz-adv-x="1865" 
d="M1759 629v-2q0 -161 -101.5 -261t-238.5 -100q-99 0 -190 58t-203 194q-49 -59 -87.5 -98t-89.5 -77.5t-108 -57.5t-120 -19q-135 0 -233.5 100.5t-98.5 249.5q0 156 99.5 257.5t250.5 101.5q112 0 205.5 -65t189.5 -185q93 107 141 148q121 103 259 102q142 0 233.5 -96
t91.5 -250zM639 393h2q44 0 86.5 17.5t82 51t68.5 63.5t67 74q3 4 6 7t5 6q-88 114 -130 153q-93 87 -197 87q-95 0 -152 -68t-57 -170q0 -92 62 -156.5t157 -64.5zM1419 852h-2q-33 0 -66.5 -12t-59.5 -28.5t-56.5 -44.5t-49 -48t-46 -51t-39.5 -43q111 -131 178 -181.5
t147 -50.5q91 0 147 69t56 154q0 107 -58 171.5t-151 64.5z" />
    <glyph glyph-name="integral" unicode="&#x222b;" horiz-adv-x="1103" 
d="M1063 1835l-29 -152q-38 21 -78 21q-69 0 -108 -53q-37 -46 -51.5 -135t-14.5 -242q0 -170 14.5 -522.5t14.5 -542.5q0 -289 -84 -436q-38 -68 -105 -101.5t-143 -33.5q-93 0 -155 34l30 160q50 -25 97 -25q61 0 98 46q65 92 65 356q0 191 -15 550.5t-15 536.5
q0 183 28.5 294.5t94.5 181.5q86 92 229 92q75 0 127 -29z" />
    <glyph glyph-name="approxequal" unicode="&#x2248;" horiz-adv-x="1382" 
d="M1208 958l82 -75q-110 -215 -286 -215q-61 0 -112.5 20t-135.5 70q-61 36 -103.5 53.5t-91.5 17.5q-35 0 -65 -12t-56.5 -37t-44.5 -48t-43 -60l-84 73q51 98 132 157t175 59q30 0 57.5 -5t56 -16.5t43 -18.5t45 -24.5t34.5 -19.5q7 -4 30.5 -18t30.5 -17.5t25.5 -13.5
t28 -13t25 -8t29 -6.5t28.5 -1.5q61 0 106.5 39t93.5 120zM1208 571l82 -75q-112 -215 -286 -215q-60 0 -110 20t-138 70q-49 28 -68 38.5t-56 22.5t-71 12q-35 0 -65 -12t-57 -39t-43.5 -48t-43.5 -60l-84 73q51 98 132 156.5t175 58.5q22 0 43 -2.5t41 -9t34.5 -11
t34.5 -15t29 -15t29.5 -17t24.5 -14.5q9 -5 38.5 -22t41 -22.5t34 -15.5t42 -13.5t41.5 -3.5q61 0 105.5 38.5t94.5 120.5z" />
    <glyph glyph-name="notequal" unicode="&#x2260;" horiz-adv-x="1417" 
d="M1085 1104l-92 -203h318v-133h-369l-137 -305h506v-133h-557l-113 -250l-104 45l92 205h-310v133h363l135 305h-498v133h549l111 246z" />
    <glyph glyph-name="lessequal" unicode="&#x2264;" horiz-adv-x="1452" 
d="M1339 213l-974 485v144l972 485v-158l-835 -395v-6l837 -399v-156zM1346 -8h-992v135h992v-135z" />
    <glyph glyph-name="greaterequal" unicode="&#x2265;" horiz-adv-x="1452" 
d="M369 1327l972 -487v-142l-972 -485v156l835 399v4l-835 397v158zM1343 -8h-987v135h987v-135z" />
    <glyph glyph-name="lozenge" unicode="&#x25ca;" horiz-adv-x="1548" 
d="M1436 756l-435 -858h-176l-426 858l435 862h178zM1239 752l-276 561q-27 63 -41 123h-7q-18 -65 -43 -123l-276 -551l281 -567q25 -67 36 -117h9q20 72 39 112z" />
    <glyph glyph-name="fi" unicode="&#xfb01;" horiz-adv-x="1040" 
d="M864 948h-313l-176 -948h-213l176 948h-152l31 166h152l14 76q13 70 38.5 125.5t55.5 91.5t72.5 62.5t78.5 40t84.5 22t79.5 10t74 2.5l-30 -168q-20 -1 -27 -1t-29 -2t-32.5 -5.5t-31 -10t-32 -16t-28 -24.5t-27 -34t-20 -45t-15.5 -58l-12 -66h526l-207 -1114h-213z
M1141 1290h-213l41 226h213z" />
    <glyph glyph-name="fl" unicode="&#xfb02;" horiz-adv-x="1040" 
d="M864 948h-313l-176 -948h-213l176 948h-152l31 166h152l14 76q13 70 38.5 125.5t55.5 91.5t72.5 62.5t78.5 40t84.5 22t79.5 10t74 2.5l-30 -168q-20 -1 -27 -1t-29 -2t-32.5 -5.5t-31 -10t-32 -16t-28 -24.5t-27 -34t-20 -45t-15.5 -58l-12 -66h313l74 399h213
l-281 -1513h-213z" />
    <glyph glyph-name="a.superior" horiz-adv-x="837" 
d="M1024 1524l-117 -629h-137l21 111q-91 -129 -250 -129q-140 0 -213.5 97.5t-46.5 235.5q27 146 139.5 240t247.5 94q150 0 198 -131l21 111h137zM416 1206v-2q-5 -32 1.5 -65.5t25.5 -63t56 -48.5t87 -19q65 0 118.5 30.5t86.5 79.5q28 41 38 92q7 55 -2 86
q-14 53 -58 85t-110 32q-87 0 -156.5 -59t-86.5 -148z" />
    <glyph glyph-name="o.superior" horiz-adv-x="837" 
d="M305 1206v2q17 87 70.5 162.5t140.5 124t189 49.5q78 0 138.5 -29t92 -76t45.5 -107t0 -122q-27 -137 -141 -235t-260 -98q-99 0 -168.5 48t-96 122.5t-10.5 158.5zM442 1208v-2q-15 -82 32.5 -140t129.5 -58q80 0 150.5 57.5t87.5 144.5q15 85 -31 144t-129 59
q-82 0 -152.5 -57.5t-87.5 -147.5z" />
    <glyph glyph-name="one.superior" horiz-adv-x="782" 
d="M766 1516l-168 -910h-164l141 766h-176l27 144h340z" />
    <glyph glyph-name="two.superior" horiz-adv-x="782" 
d="M846 750l-27 -144h-635l25 131q219 172 379 303q78 62 114.5 107.5t45.5 95.5q13 64 -12.5 105t-94.5 41q-71 0 -118 -54t-62 -135h-164q20 126 98 209q110 125 281 125q148 0 216.5 -72t43.5 -202q-15 -77 -57 -137.5t-123 -127.5q-34 -28 -94.5 -77.5t-111 -90.5
t-93.5 -77h389z" />
    <glyph glyph-name="three.superior" horiz-adv-x="782" 
d="M219 885h172q-9 -72 27 -112t102 -40q72 0 122.5 42.5t62.5 109.5q7 33 -3 65t-44.5 56t-90.5 24h-88l25 125h53q67 0 115.5 37t56.5 84q8 45 -13.5 78.5t-72.5 34.5q-57 0 -92 -33.5t-47 -81.5h-168q16 73 57 127t92.5 81t98.5 39.5t90 12.5q117 0 181 -69t46 -167
q-11 -56 -51.5 -107t-101.5 -81q73 -30 108.5 -93t20.5 -140q-23 -122 -134.5 -205.5t-250.5 -83.5q-81 0 -150 32.5t-100 90.5q-38 68 -23 174z" />
    </font>
</defs>
</svg>
